˂
˃
Tarqatmalar statistikasi
Ko‘chiraman: [ 1 ]
Ko‘chirmoqdaman: [ 8 ]
Ko‘chirib bo‘ldim: [ 47 ]
 
     
 
 

N.U.R.I.K.B.E.K ®

Jins:
Yigit
Staj:
1 yil 7 oy
Xabarlar:
476

Qayerdan: Jizzax. Paxtakor

Taqiq:

-Firibgar Josus | Шпион который меня кинул | The Spy Who Dumped Me
--Chiqqan yili: 2018
Davlat: AQSH
Janr: Jangari, Kulguli, Sarguxasht.
Davomiyligi: 01:56:56
Tarjima: Professional MY5TV O'zbek Tilida
Tarjima 2: Professional iTunes Rus Tilida--Rejissyor: Suzanna Fogel.--Rollarda: Mila Kunis, Keyt MakKinnon, Sam Xyuen, Jastin Teru, Jillian Anderson, Xasan Minxadj, Ivanna Saxno, Fred Melamed, Blanka Dyorfi Tot, Vilma Sechi.--Tavsif: Audrey va Morgan, eng yaxshi do'stlari to'satdan o'zlarini Los-Anjelesning xalqaro fitna markazida topishadi, sobiq Audrey esa uning izidan yurgan odamlar bilan gaplashib turadi. Dunyoni hayratda qoldirib, qizlar O'zlarini qutqarishning murakkab vazifasini boshladilar. Evropada xavf-xatarlarga to'la josus va qotillar - poygasi bo'lib, ular juda shubhali, ammo bunday ajoyib ingliz agenti bilan duch kelishmoqda ...-Qo'sh. ma'lumot:
--Videoning sifati: BDRip-HEVC 1080p 10 Bit
Video format: MKV-Video: HVC1 1920x800 23.976fps 1 496 kb/s
Audio: MP3 48000Hz stereo 128kbps O'zbek Tili
Audio 2: Dolby AC3 48000Hz 6ch 384kbps Rus Til--

Media Info

General
Format : Matroska
Format version : Version 4 / Version 2
File size : 1.64 GiB
Duration : 1 h 56 min
Overall bit rate : 2 010 kb/s
Movie name : The Spy Who Dumped Me 2018 | AllTor.Me
Encoded date : UTC 2019-02-10 13:11:27
Writing application : mkvmerge v15.0.0 ('Duel with the Devil') 64-bit
Writing library : libebml v1.3.5 + libmatroska v1.4.5
Attachments : poster | AllTor.Me.png
Video
ID : 1
Format : HEVC
Format/Info : High Efficiency Video Coding
Format profile : Main 10@L4@Main
Codec ID : V_MPEGH/ISO/HEVC
Duration : 1 h 56 min
Bit rate : 1 496 kb/s
Width : 1 920 pixels
Height : 800 pixels
Display aspect ratio : 2.40:1
Frame rate mode : Constant
Frame rate : 23.976 (24000/1001) FPS
Color space : YUV
Chroma subsampling : 4:2:0
Bit depth : 10 bits
Bits/(Pixel*Frame) : 0.041
Stream size : 1.22 GiB (74%)
Default : Yes
Forced : No
Audio #1
ID : 2
Format : MPEG Audio
Format version : Version 1
Format profile : Layer 3
Mode : Joint stereo
Mode extension : MS Stereo
Codec ID : A_MPEG/L3
Codec ID/Hint : MP3
Duration : 1 h 56 min
Bit rate mode : Constant
Bit rate : 128 kb/s
Channel(s) : 2 channels
Sampling rate : 48.0 kHz
Frame rate : 41.667 FPS (1152 SPF)
Compression mode : Lossy
Stream size : 107 MiB (6%)
Title : O'zbek Tili
Language : Uzbek
Default : Yes
Forced : No
Audio #2
ID : 3
Format : AC-3
Format/Info : Audio Coding 3
Format settings, Endianness : Big
Codec ID : A_AC3
Duration : 1 h 56 min
Bit rate mode : Constant
Bit rate : 384 kb/s
Channel(s) : 6 channels
Channel positions : Front: L C R, Side: L R, LFE
Sampling rate : 48.0 kHz
Frame rate : 31.250 FPS (1536 SPF)
Bit depth : 16 bits
Compression mode : Lossy
Stream size : 321 MiB (19%)
Title : Rus Tili
Language : Russian
Service kind : Complete Main
Default : No
Forced : Yes
--LAVHALAR
.torrent yuklash

Yuqori tezlikda va bepul ko‘chirish!

Qanday yuklab olinadi? · Torrent nima o‘zi? · Reyting va cheklovlar



So‘ngi marta tahrirlandi: N.U.R.I.K.B.E.K (2019-02-10 19:17), Jami tahrirlangan 1 marta
Profil ShX

N.U.R.I.K.B.E.K ®

Jins:
Yigit
Staj:
1 yil 7 oy
Xabarlar:
476

Qayerdan: Jizzax. Paxtakor

Taqiq:

Bu kinoni taxlayotkanimda bir mantaj joyini eshitib qolib kulaverib ichagim uzuldi, Qizdan Fleshkani qayerga yashirdin deb so'raganda ichki cho'ntagimga desa bo'ladimi ag

Mavzu yaratish 10-Fev-2019 19:16 (13 daqiqa o‘tgach)

Iqitibos

Profil ShX

Topik Sifatli Xorij filmlari (BDRip, BDRip-AVC, HD-AVC) forumidan HEVC Kinofilmlar ga ko‘chirildi
N.U.R.I.K.B.E.K

Mavzu yaratish 10-Fev-2019 19:32 (15 daqiqa o‘tgach)

Soft-Release

Jins:
Yigit
Staj:
1 yil 3 oy
Xabarlar:
775

Qayerdan: Kattakurgan

Taqiq:

7613Bu kinoni taxlayotkanimda bir mantaj joyini eshitib qolib kulaverib ichagim uzuldi, Qizdan Fleshkani qayerga yashirdin deb so'raganda ichki cho'ntagimga desa bo'ladimi ag
N.U.R.I.K.B.E.K, ag

Mavzu yaratish 10-Fev-2019 20:01 (45 daqiqa o‘tgach)

Iqitibos

Profil ShX

N.U.R.I.K.B.E.K ®

Jins:
Yigit
Staj:
1 yil 7 oy
Xabarlar:
476

Qayerdan: Jizzax. Paxtakor

Taqiq:

o'zimga balli ko'pchilik ko'chirvoldi, Siderda turib tarqatib turselar boshqa kinoni taxlardim.

Mavzu yaratish 11-Fev-2019 11:12 (15 soat o‘tgach)

Iqitibos

Profil ShX
Xabarlarni ko‘rsatish:    

Hozirgi vaqt: 17-Iyun 17:42

Vaqtlar farqi: UTC + 5



Siz mavzu yaratishingiz mumkin emas
Siz xabarlarga javob qaytarishingiz mumkin emas
Siz o‘z xabarlaringizni tahrirlashingiz mumkin emas
Siz o‘z xabarlaringizni o‘chirishingiz mumkin emas
Siz so‘rovlarda ovoz berishingiz mumkin emas
Siz xabalarga fayllarni biriktirishingiz mumkin emas
Siz fayllarni ko‘chirishingiz mumkin emas