˂
˃
Tarqatmalar statistikasi
Ko‘chiraman: [ 1 ]
Ko‘chirmoqdaman: [ 14 ]
Ko‘chirib bo‘ldim: [ 63 ]
 
     
 
 

N.U.R.I.K.B.E.K ®

Jins:
Yigit
Staj:
1 yil 5 oy
Xabarlar:
459

Qayerdan: Jizzax. Paxtakor

Taqiq:


--Jon Uik 2 | Джон Уик 2 | John Wick: Chapter Two--Chiqqan yili: 2017
Davlat: AQSH
Janr: Jangari, Kriminal, Jinoyat.
Davomiyligi: 02:02:22
Tarjima: Professional Kinoteatr O'zbek Tilida
Tarjima 2: Professional Rus Tili--Rejissyor:
Chad Stahelski.--Rollarda:
Kianu Rivz, Rikkardo Skamarchio, Ien MakSheyn, Rubi Rouz, Kommon Klaudiya Jerini, Lens Reddik, Lourens Fishborn, Tobiash Sigal, Jon Leguizamo.--Tavsif:
Jonning sobiq hamkasbi sirli suiqasdini guildini boshqarishga qaror qiladi, Vikson iste'fo berishga majbur bo'ladi. Qonli qasamyod bilan yurgan Yuhanno Rimga ketadi, u erda dunyoning eng xavfli qotillari bilan jang qilishga majbur bo'ladi ...--Qo'sh. ma'lumot:
--Videoning sifati: BDRip-AVC
Video format: MKV--Video: MPEG4 Video (H264) 1024x426 23.976fps 2 022 kb/s
Audio: MP3 48000Hz stereo 128kbps O'zbek Tili
Audio 2: Dolby AC3 48000Hz 6ch 448kbps Rus Til--

Media Info

General
Format : Matroska
Format version : Version 4 / Version 2
File size : 2.21 GiB
Duration : 2 h 2 min
Overall bit rate : 2 585 kb/s
Movie name : John.Wick.2.(2017).BDRip.1080p.(qqss44)
Encoded date : UTC 2019-02-11 11:55:15
Writing application : mkvmerge v15.0.0 ('Duel with the Devil') 64-bit
Writing library : libebml v1.3.5 + libmatroska v1.4.5
Video
ID : 1
Format : AVC
Format/Info : Advanced Video Codec
Format profile : High@L4.1
Format settings, CABAC : Yes
Format settings, RefFrames : 12 frames
Codec ID : V_MPEG4/ISO/AVC
Duration : 2 h 2 min
Bit rate : 2 022 kb/s
Width : 1 024 pixels
Height : 426 pixels
Display aspect ratio : 2.40:1
Frame rate mode : Constant
Frame rate : 23.976 (24000/1001) FPS
Color space : YUV
Chroma subsampling : 4:2:0
Bit depth : 8 bits
Scan type : Progressive
Bits/(Pixel*Frame) : 0.193
Stream size : 1.72 GiB (78%)
Language : English
Default : Yes
Forced : No
Audio #1
ID : 2
Format : MPEG Audio
Format version : Version 1
Format profile : Layer 3
Mode : Joint stereo
Mode extension : MS Stereo
Codec ID : A_MPEG/L3
Codec ID/Hint : MP3
Duration : 2 h 2 min
Bit rate mode : Constant
Bit rate : 128 kb/s
Channel(s) : 2 channels
Sampling rate : 48.0 kHz
Frame rate : 41.667 FPS (1152 SPF)
Compression mode : Lossy
Stream size : 112 MiB (5%)
Title : O'zbek Tili
Writing library : LAME3.99.5
Language : Uzbek
Default : Yes
Forced : No
Audio #2
ID : 3
Format : AC-3
Format/Info : Audio Coding 3
Format settings, Endianness : Big
Codec ID : A_AC3
Duration : 2 h 2 min
Bit rate mode : Constant
Bit rate : 448 kb/s
Channel(s) : 6 channels
Channel positions : Front: L C R, Side: L R, LFE
Sampling rate : 48.0 kHz
Frame rate : 31.250 FPS (1536 SPF)
Bit depth : 16 bits
Compression mode : Lossy
Stream size : 392 MiB (17%)
Title : Rus Tili
Language : Russian
Service kind : Complete Main
Default : No
Forced : No
LAVHALAR
.torrent yuklash

Yuqori tezlikda va bepul ko‘chirish!

Qanday yuklab olinadi? · Torrent nima o‘zi? · Reyting va cheklovlar



So‘ngi marta tahrirlandi: N.U.R.I.K.B.E.K (2019-02-11 19:51), Jami tahrirlangan 2 marta
Profil ShX

logan7272

Jins:
Yigit
Staj:
1 yil
Xabarlar:
64

Qayerdan: Namangan

Taqiq:

tasvif ruscha u

Mavzu yaratish 11-Fev-2019 17:44 (2 daqiqa o‘tgach)

Iqitibos

Profil ShX

Daymos

Jins:
Yigit
Staj:
11 oy 19 kun
Xabarlar:
4

Qayerdan: Navoiy

Taqiq:

N.U.R.I.K.B.E.K, фильмга гап йу, релизни хам чиройли тахлабсиз,) ay ана шу рухиятда давом этаверинг).

Mavzu yaratish 11-Fev-2019 20:03 (2 soat 18 daqiqa o‘tgach)

Iqitibos

Profil ShX

CIIIA

Jins:
Ko‘rsatilmagan
Staj:
1 yil 2 oy
Xabarlar:
3
Taqiq:

ZORRRRRRRRRRRRRRRRRRRRRRRRRRR RAXMAT KOTAKON

Mavzu yaratish 26-Fev-2019 18:21 (14 kun o‘tgach)

Iqitibos

Profil ShX
Xabarlarni ko‘rsatish:    

Hozirgi vaqt: 18-Apr 20:19

Vaqtlar farqi: UTC + 5



Siz mavzu yaratishingiz mumkin emas
Siz xabarlarga javob qaytarishingiz mumkin emas
Siz o‘z xabarlaringizni tahrirlashingiz mumkin emas
Siz o‘z xabarlaringizni o‘chirishingiz mumkin emas
Siz so‘rovlarda ovoz berishingiz mumkin emas
Siz xabalarga fayllarni biriktirishingiz mumkin emas
Siz fayllarni ko‘chirishingiz mumkin emas