˂
˃
Tarqatmalar statistikasi
Ko‘chirmoqdaman: [ 3 ]
Ko‘chirib bo‘ldim: [ 16 ]
 
     
 
 

lawyer ®

Jins:
Ko‘rsatilmagan
Staj:
1 yil 7 oy
Xabarlar:
21
Taqiq:

:::::::::::::::::::::::::::::::::::::::::::::::::::::::::::::::::::::::::::::::::::::::::::::::::::::::::::::::::::::::::::::::::::::::::::::::::::Adolat Tarafdori | Великий уравнитель | The Equalizer :::::::::::::::::::::::::::::::::::::::::::::::::::::::::::::::::::::::::::::::::::::::::::::::::::::::::::::::::::::::::::::::::::::::::::::::::::Chiqqan yili: 2014
Davlat: AQSH
Janr: Jangari, Triller, Jinoyat.
Davomiyligi: 2:12:00
Tarjima: Professional (Ko'p ovozli kadr ortidan) O'zbek tilida

Rejissyor: Antuan Fukua.
Rollarda: Denzel Vashington, Pedro Paskal, Bill Pulman,
Melisa Leo, Jonatan Skarf, Sakina Jefri, Kerolayn Dey, Orson Bin,
Xaydi Garrou, Eshton Sanders.

:::::::::::::::::::::::::::::::::::::::::::::::::::::::::::::::::::::::::::::::::::::::::::::::::::::::::::::::::::::::::::::::::::::::::::::::::::
Tavsif: Robert McCall sobiq komando. Xizmatdan bo'shatilgandan
so'ng u tinchliksevar hayot kechirishga va'da berib, hech qachon qayta qurol
olmaslikka qaror qiladi. Biroq, u bir vaqtning o'zida, fohishalik bilan o'z jonini
fido qilgan qizni uchratadi, uni ko'z o'ngida gangsterlar tomonidan kaltaklab,
noma'lum tomonga olib ketadi. Keyin u uni topishga qaror qiladi va keyinchalik
Rossiya mafiyasi va Markaziy razvedka boshqarmasi korruptsionerlari bilan teng
bo'lmagan urushga kirishadi. Adolat uchun u o'zining va'dasini
buzishga va bu dunyoda yashashga loyiq bo'lmagan odamlarga qurol
ishlatishga tayyor.

:::::::::::::::::::::::::::::::::::::::::::::::::::::::::::::::::::::::::::::::::::::::::::::::::::::::::::::::::::::::::::::::::::::::::::::::::::
Videoning sifati: HDRip-AVC
Video format: MPEG
Video: MPEG4 Video (H264) 1280x720 24 fps 2 198 Kbps
Audio: AAC 256 Kbps 2 channels 44.1 KHz

:::::::::::::::::::::::::::::::::::::::::::::::::::::::::::::::::::::::::::::::::::::::::::::::::::::::::::::::::::::::::::::::::::::::::::::::::::

Media Info

Format : MPEG-4
Format profile : Base Media
Codec ID : isom
File size : 2.27 GiB
Duration : 2h 12mn
Overall bit rate mode : Variable
Overall bit rate : 2 457 Kbps
Writing application : Lavf57.83.100
Video
ID : 1
Format : AVC
Format/Info : Advanced Video Codec
Format profile : High@L3.1
Format settings, CABAC : Yes
Format settings, ReFrames : 4 frames
Format settings, GOP : M=1, N=72
Codec ID : avc1
Codec ID/Info : Advanced Video Coding
Duration : 2h 12mn
Duration_FirstFrame : 46ms
Bit rate mode : Variable
Bit rate : 2 198 Kbps
Maximum bit rate : 6 492 Kbps
Width : 1 280 pixels
Height : 720 pixels
Display aspect ratio : 16:9
Frame rate mode : Constant
Frame rate : 24.000 fps
Color space : YUV
Chroma subsampling : 4:2:0
Bit depth : 8 bits
Scan type : Progressive
Bits/(Pixel*Frame) : 0.099
Stream size : 2.03 GiB (89%)
Tagged date : UTC 2018-11-18 07:14:04
Audio
ID : 2
Format : AAC
Format/Info : Advanced Audio Codec
Format profile : LC
Codec ID : 40
Duration : 2h 12mn
Bit rate mode : Constant
Bit rate : 256 Kbps
Channel(s) : 2 channels
Channel positions : Front: L R
Sampling rate : 44.1 KHz
Compression mode : Lossy
Stream size : 242 MiB (10%)
Tagged date : UTC 2018-11-18 07:14:04
::::::::::::::::: LAVHALAR :::::::::::::::::

Rahmat aytishni unutmang.
::::::::::::::::::::::::::::::::::::::::::::::::::::::::::::::::::::::
Iltimos Tarqatishda Yordamlashing.
.torrent yuklash

Yuqori tezlikda va bepul ko‘chirish!

Qanday yuklab olinadi? · Torrent nima o‘zi? · Reyting va cheklovlar



So‘ngi marta tahrirlandi: lawyer (2019-02-14 20:18), Jami tahrirlangan 23 marta
Profil ShX

N.U.R.I.K.B.E.K

Jins:
Yigit
Staj:
1 yil 8 oy
Xabarlar:
493

Qayerdan: Jizzax. Paxtakor

Taqiq:

lawyer, õziz taxladizmi ovozi yaxshi tushkanmi

Mavzu yaratish 14-Fev-2019 17:56 (53 daqiqa o‘tgach)

Iqitibos

Profil ShX

lawyer ®

Jins:
Ko‘rsatilmagan
Staj:
1 yil 7 oy
Xabarlar:
21
Taqiq:

7635lawyer, õziz taxladizmi ovozi yaxshi tushkanmi
Овози тушганига гап бўлиши мумкинмас.

Mavzu yaratish 14-Fev-2019 18:22 (26 daqiqa o‘tgach)

Iqitibos

Profil ShX

AxeL

Jins:
Yigit
Staj:
1 yil 3 oy
Xabarlar:
745

Qayerdan: Gronland, Norway

Taqiq:

lawyer, orginal fayliga mkvtoolnix dasturi bilan biriktirsangiz yahshi bo'ladi, hozir ham kech emas

Mavzu yaratish 14-Fev-2019 18:38 (15 daqiqa o‘tgach)

Iqitibos

Profil ShX

lawyer ®

Jins:
Ko‘rsatilmagan
Staj:
1 yil 7 oy
Xabarlar:
21
Taqiq:

7637lawyer, orginal fayliga mkvtoolnix dasturi bilan biriktirsangiz yahshi bo'ladi, hozir ham kech emas
Тушунмадим рус тилидагисини назарда тутаябсизми? Мен иложи борича хажми кичичроқ сифати яхши кино жойлай оламан сабаби upload тезлигим 100 га хам бормайди. Бу кинони 4.60 ГБ 1080р формати бор лекин юқорида такидлаганимдай тезлигим паст.

Mavzu yaratish 14-Fev-2019 18:51 (12 daqiqa o‘tgach)

Iqitibos

Profil ShX

N.U.R.I.K.B.E.K

Jins:
Yigit
Staj:
1 yil 8 oy
Xabarlar:
493

Qayerdan: Jizzax. Paxtakor

Taqiq:

lawyer,
7638
7637lawyer, orginal fayliga mkvtoolnix dasturi bilan biriktirsangiz yahshi bo'ladi, hozir ham kech emas
Тушунмадим рус тилидагисини назарда тутаябсизми? Мен иложи борича хажми кичичроқ сифати яхши кино жойлай оламан сабаби upload тезлигим 100 га хам бормайди. Бу кинони 4.60 ГБ 1080р формати бор лекин юқорида такидлаганимдай тезлигим паст.
Movavida konvert wiganizda kadr farmatini õzgartirmay faqat bitrateni kamaytirsangiz yetarli xajmi xam kamayadi.

Mavzu yaratish 14-Fev-2019 22:24 (3 soat o‘tgach)

Iqitibos

Profil ShX

lawyer ®

Jins:
Ko‘rsatilmagan
Staj:
1 yil 7 oy
Xabarlar:
21
Taqiq:

7641lawyer,
7638
7637lawyer, orginal fayliga mkvtoolnix dasturi bilan biriktirsangiz yahshi bo'ladi, hozir ham kech emas
Тушунмадим рус тилидагисини назарда тутаябсизми? Мен иложи борича хажми кичичроқ сифати яхши кино жойлай оламан сабаби upload тезлигим 100 га хам бормайди. Бу кинони 4.60 ГБ 1080р формати бор лекин юқорида такидлаганимдай тезлигим паст.
Movavida konvert wiganizda kadr farmatini õzgartirmay faqat bitrateni kamaytirsangiz yetarli xajmi xam kamayadi.
Хабарим бор бундан сифати бузилгани билиндида кунглим тулмади.

Mavzu yaratish 14-Fev-2019 23:07 (42 daqiqa o‘tgach)

Iqitibos

Profil ShX

AxeL

Jins:
Yigit
Staj:
1 yil 3 oy
Xabarlar:
745

Qayerdan: Gronland, Norway

Taqiq:

lawyer, yo'q rus tilidagi tili audio dorojkasini olib tashlaysiz, orginal faylida sifati buzilmaydi, tezligim past deyapsizmi?hech qisi yo'q uploaderlarimiz yordamga kelishadi, bu film ularni befarq qoldirishmaydi degan umiddaman, shuning uchun orginal fayliga biriktiring deyapman

Mavzu yaratish 15-Fev-2019 09:07 (9 soat o‘tgach)

Iqitibos

Profil ShX

lawyer ®

Jins:
Ko‘rsatilmagan
Staj:
1 yil 7 oy
Xabarlar:
21
Taqiq:

7644lawyer, yo'q rus tilidagi tili audio dorojkasini olib tashlaysiz, orginal faylida sifati buzilmaydi, tezligim past deyapsizmi?hech qisi yo'q uploaderlarimiz yordamga kelishadi, bu film ularni befarq qoldirishmaydi degan umiddaman, shuning uchun orginal fayliga biriktiring deyapman
Телеграмизни ёзворинг. Саволларим бор эди.

Mavzu yaratish 15-Fev-2019 09:19 (12 daqiqa o‘tgach)

Iqitibos

Profil ShX
Xabarlarni ko‘rsatish:    

Hozirgi vaqt: 17-Iyul 16:25

Vaqtlar farqi: UTC + 5



Siz mavzu yaratishingiz mumkin emas
Siz xabarlarga javob qaytarishingiz mumkin emas
Siz o‘z xabarlaringizni tahrirlashingiz mumkin emas
Siz o‘z xabarlaringizni o‘chirishingiz mumkin emas
Siz so‘rovlarda ovoz berishingiz mumkin emas
Siz xabalarga fayllarni biriktirishingiz mumkin emas
Siz fayllarni ko‘chirishingiz mumkin emas