˂
˃
Tarqatmalar statistikasi
Ko‘chiraman: [ 2 ]
Ko‘chirmoqdaman: [ 6 ]
Ko‘chirib bo‘ldim: [ 9 ]
 
     
 
 

lawyer ®

Jins:
Ko‘rsatilmagan
Staj:
1 yil 6 oy
Xabarlar:
21
Taqiq:

Adolat Tarafdori 2 | Великий уравнитель 2 | The Equalizer 2
::::::::::::::::::::::::::::::::::::::::::::::::::::::::::::::::::::::::::::::::::::::::::::::::::::::::::::::::::::::::
Chiqqan yili: 2018
Davlat: AQSH
Janr: jangari, triller, jinoyat
Davomiyligi: 02:00:57
Tarjima: Professional (dublyaj qilingan) O'zbek Tilida
Tarjima: Professional (dublyaj qilingan) Rus Tilida
Tarjima: Professional (dublyaj qilingan) Ingliz Tilida
Rejissyor: Antuan Fukua
::::::::::::::::::::::::::::::::::::::::::::::::::::::::::::::::::::::::::::::::::::::::::::::::::::::::::::::::::::::::
Rollarda:
Denzel Vashington, Pedro Paskal, Bill Pulman, Melisa Leo, Jonatan Skarf, Sakina Jefri, Kerolayn Dey, Orson Bin, Xaydi Garrou, Eshton Sanders.
::::::::::::::::::::::::::::::::::::::::::::::::::::::::::::::::::::::::::::::::::::::::::::::::::::::::::::::::::::::::
Tavsif:
Ilgari maxsus agent Robert McCall, o'z fikriga ko'ra, odamlarga yordam berishda davom etmoqda va yomonni jazolashga davom etmoqda. Markaziy razvedka boshqarmasi uni o'lik deb hisoblaydi, va faqat sobiq do'sti va sobiq hamkasbi Susan uning sirini biladi va vaqti-vaqti bilan tashrif buyuradi. Susan Bryusseldagi missiyasida o'ldirilganda, uni qaroqchilikka aylantirmoqchi bo'lganida, McCall barcha ishtirokchilarga qarshi qasos olishga qaror qiladi ...
::::::::::::::::::::::::::::::::::::::::::::::::::::::::::::::::::::::::::::::::::::::::::::::::::::::::::::::::::::::::
Videoning sifati: BDRip
Video format: MKV
Video: HVC1, 1920x800, 23.976fps, 2 138 kb/s
Audio: MP3 48000Hz stereo 128kbps O'zbek Tili
Audio 2: HE-AAC / LC, 48000 Hz, 8 ch, 288 kb/s | Ingliz tili
Audio 3: AC-3, 48000 Hz, 6 ch, 384 kb/s | Rus tili
Subtitrlar: rus, ingliz tillarida
::::::::::::::::::::::::::::::::::::::::::::::::::::::::::::::::::::::::::::::::::::::::::::::::::::::::::::::::::::::::

Media Info

Format : Matroska
Format version : Version 4 / Version 2
File size : 2.49 GiB
Duration : 2h 1mn
Overall bit rate : 2 940 Kbps
Movie name : The.Equalizer.2.2018.1080p.10bit.HEVC
Encoded date : UTC 2019-02-16 08:45:59
Writing application : mkvmerge v31.0.0 ('Dolores In A Shoestand') 64-bit
Writing library : libebml v1.3.6 + libmatroska v1.4.9
Video
ID : 1
Format : HEVC
Format/Info : High Efficiency Video Coding
Format profile : Main 10@L4.0
Codec ID : V_MPEGH/ISO/HEVC
Duration : 2h 1mn
Width : 1 920 pixels
Height : 800 pixels
Display aspect ratio : 2.40:1
Frame rate mode : Constant
Frame rate : 23.976 fps
Color space : YUV
Chroma subsampling : 4:2:0
Bit depth : 10 bits
Title : The.Equalizer.2.2018.1080p.10bit.HEVC
Default : Yes
Forced : No
Audio #1
ID : 5
Format : MPEG Audio
Format version : Version 1
Format profile : Layer 3
Mode : Joint stereo
Mode extension : MS Stereo
Codec ID : A_MPEG/L3
Codec ID/Hint : MP3
Duration : 2h 1mn
Bit rate mode : Constant
Bit rate : 128 Kbps
Channel(s) : 2 channels
Sampling rate : 44.1 KHz
Compression mode : Lossy
Stream size : 111 MiB (4%)
Title : Uzbek
Writing library : LAME3.99.5
Language : Uzbek
Default : No
Forced : Yes
Audio #2
ID : 6
Format : AC-3
Format/Info : Audio Coding 3
Mode extension : CM (complete main)
Format settings, Endianness : Big
Codec ID : A_AC3
Duration : 2h 1mn
Bit rate mode : Constant
Bit rate : 384 Kbps
Channel(s) : 6 channels
Channel positions : Front: L C R, Side: L R, LFE
Sampling rate : 48.0 KHz
Bit depth : 16 bits
Compression mode : Lossy
Delay relative to video : 1s 0ms
Stream size : 333 MiB (13%)
Title : DUB | iTunes |
Language : Russian
Default : Yes
Forced : Yes
Audio #3
ID : 7
Format : AAC
Format/Info : Advanced Audio Codec
Format profile : HE-AAC / LC
Codec ID : A_AAC
Duration : 2h 1mn
Channel(s) : 8 channels
Channel positions : Front: L C R, Side: L R, Back: L R, LFE
Sampling rate : 48.0 KHz / 24.0 KHz
Compression mode : Lossy
Delay relative to video : 31ms
Title : ENG
Language : English
Default : No
Forced : No
Text #1
ID : 2
Format : UTF-8
Codec ID : S_TEXT/UTF8
Codec ID/Info : UTF-8 Plain Text
Title : ENG
Language : English
Default : No
Forced : No
Text #2
ID : 3
Format : UTF-8
Codec ID : S_TEXT/UTF8
Codec ID/Info : UTF-8 Plain Text
Title : ENG SDH
Language : English
Default : No
Forced : No
Text #3
ID : 4
Format : UTF-8
Codec ID : S_TEXT/UTF8
Codec ID/Info : UTF-8 Plain Text
Title : RUS (FORCED)
Language : Russian
Default : Yes
Forced : Yes
::::::::::::::::: LAVHALAR :::::::::::::::::
Boshidagi 7 daqiqasi TVda tarjima qilinmagan. Tarjima 00:07:00 daqiqadan boshlanadi.Rahmat aytishni unutmang.
--------------------------------------------------------------
Iltimos Tarqatishda Yordamlashing.
.torrent yuklash

Yuqori tezlikda va bepul ko‘chirish!

Qanday yuklab olinadi? · Torrent nima o‘zi? · Reyting va cheklovlar



So‘ngi marta tahrirlandi: lawyer (2019-02-17 19:59), Jami tahrirlangan 8 marta
Profil ShX

N.U.R.I.K.B.E.K

Jins:
Yigit
Staj:
1 yil 7 oy
Xabarlar:
476

Qayerdan: Jizzax. Paxtakor

Taqiq:

lawyer, posterni kichiraytiring

Mavzu yaratish 16-Fev-2019 20:23 (11 daqiqa o‘tgach)

Iqitibos

Profil ShX

N.U.R.I.K.B.E.K

Jins:
Yigit
Staj:
1 yil 7 oy
Xabarlar:
476

Qayerdan: Jizzax. Paxtakor

Taqiq:

Janr: jangari, jriller, jinoyat
janrni xam to'g'irlavoring
mediaifoda qo'shni treker nomi borekan.

Mavzu yaratish 16-Fev-2019 20:28 (4 daqiqa o‘tgach)

Iqitibos

Profil ShX

lawyer ®

Jins:
Ko‘rsatilmagan
Staj:
1 yil 6 oy
Xabarlar:
21
Taqiq:

7653Janr: jangari, jriller, jinoyat
janrni xam to'g'irlavoring
mediaifoda qo'shni treker nomi borekan.
ok.


So‘ngi marta tahrirlandi: lawyer (2019-02-18 13:06), Jami tahrirlangan 3 marta

Mavzu yaratish 16-Fev-2019 20:35 (7 daqiqa o‘tgach)

Iqitibos

Profil ShX

Topik HD, HD-AVC va yuqori sifatli Tarjima kinofilmlari forumidan HEVC Kinofilmlar ga ko‘chirildi
MRLG

Mavzu yaratish 16-Fev-2019 21:05 (30 daqiqa o‘tgach)

AxeL

Jins:
Yigit
Staj:
1 yil 2 oy
Xabarlar:
740

Qayerdan: Gronland, Norway

Taqiq:

lawyer, malades, shunday davom eting

Mavzu yaratish 16-Fev-2019 21:12 (37 daqiqa o‘tgach)

Iqitibos

Profil ShX

N.U.R.I.K.B.E.K

Jins:
Yigit
Staj:
1 yil 7 oy
Xabarlar:
476

Qayerdan: Jizzax. Paxtakor

Taqiq:

lawyer, shapkasida xam qolipti jriller ))

Mavzu yaratish 16-Fev-2019 21:24 (11 daqiqa o‘tgach)

Iqitibos

Profil ShX

lawyer ®

Jins:
Ko‘rsatilmagan
Staj:
1 yil 6 oy
Xabarlar:
21
Taqiq:

7656lawyer, malades, shunday davom eting
Рахмат Брат қўлдан келганча релиз қилиб тураман.

Mavzu yaratish 16-Fev-2019 21:27 (2 daqiqa o‘tgach)

Iqitibos

Profil ShX

lawyer ®

Jins:
Ko‘rsatilmagan
Staj:
1 yil 6 oy
Xabarlar:
21
Taqiq:

7657lawyer, shapkasida xam qolipti jriller ))
Узр эй эътибор бермабман.

Mavzu yaratish 16-Fev-2019 21:28 (1 daqiqa o‘tgach)

Iqitibos

Profil ShX

N.U.R.I.K.B.E.K

Jins:
Yigit
Staj:
1 yil 7 oy
Xabarlar:
476

Qayerdan: Jizzax. Paxtakor

Taqiq:

7659
7657lawyer, shapkasida xam qolipti jriller ))
Узр эй эътибор бермабман.
Xechqisi yo bõpturadi.

Mavzu yaratish 16-Fev-2019 21:34 (5 daqiqa o‘tgach)

Iqitibos

Profil ShX
Xabarlarni ko‘rsatish:    

Hozirgi vaqt: 17-Iyun 17:47

Vaqtlar farqi: UTC + 5



Siz mavzu yaratishingiz mumkin emas
Siz xabarlarga javob qaytarishingiz mumkin emas
Siz o‘z xabarlaringizni tahrirlashingiz mumkin emas
Siz o‘z xabarlaringizni o‘chirishingiz mumkin emas
Siz so‘rovlarda ovoz berishingiz mumkin emas
Siz xabalarga fayllarni biriktirishingiz mumkin emas
Siz fayllarni ko‘chirishingiz mumkin emas