˂
˃
Tarqatmalar statistikasi
Ko‘chiraman: [ 1 ]
Ko‘chirmoqdaman: [ 2 ]
Ko‘chirib bo‘ldim: [ 15 ]
 
     
 
 

AxeL ®

Jins:
Yigit
Staj:
1 yil 2 oy
Xabarlar:
740

Qayerdan: Gronland, Norway

Taqiq:

-Jodu Saltanati: Grindelwaldning jinoyati / Фантастические твари: Преступления Грин-де-Вальда / Fantastic Beasts: The Crimes of Grindelwald- Chiqqan yili: 2018
Davlat: AQSh, Buyuk Britaniya
Janr: hayoliy, sarguzasht, oilaviy
Davomiyligi: 02:13:50
Tarjima: Professional (ko'p ovozli, Yoshlar kanali) o'zbek tilida-Rejissyor: Devid Yates
Rollarda: Johnny Depp, Kevin Guthrie, Carmen Edzhogo, Wolf Roth, Eddie Redmain, Zoe Kravitz, Callum Turner, Derek Riddell, Cornell John, Ezra Miller-Tavsif:Buyuk zulmat afsungari Gellert Grin-de-Vald Shtatda qo'lga olinganidan so'ng, qamoqda qo'l qovushtirib o'tirgani yo'q va ajoyib qochishni tashkillashtirdi. Endi u barcha afsungarlarni butun sayyoradagi barcha oddiy mavjudodlardan ustun qo'yishdek maqsadiga yetishi uchun hechnarsa halal bermaydi. Grin-de-Valdning rejalarini yo'q qilish uchun Albus Dambldor o'zining yordamini ayamaydigan va havf hatardan yiroq bo'lgan sobiq talabasi Nyut Salamanderga murojat qiladi.- -Videoning sifati: WEB-DL HEVC 1080p
Video format: MKV
Video: HVC1 1920x800 23.976fps 1 218 Kbps
Audio: AAC 48000Hz stereo 2ch 128 Kbps O'zbek tilida-

Media Info

General
Unique ID : 298144731710050354679488542300411437155 (0xE04C962F19418BF3B403F23AB742A063)
Complete name : D:\Films\Tarjima\HD Video\Jodu.Saltanati.Grindevaldning.Jinoyati.webdl.hevc.2018.AxeL.mkv
Format : Matroska
Format version : Version 4 / Version 2
File size : 1.26 GiB
Duration : 2h 13mn
Overall bit rate : 1 348 Kbps
Movie name : Fantastic Beasts The Crimes of Grindelwald - RMTeam, RMZ.cr
Encoded date : UTC 2019-02-17 06:39:54
Writing application : mkvmerge v22.0.0 ('At The End Of The World') 64-bit
Writing library : libebml v1.3.5 + libmatroska v1.4.8
Video
ID : 1
Format : HEVC
Format/Info : High Efficiency Video Coding
Format profile : Main@L4@Main
Codec ID : V_MPEGH/ISO/HEVC
Duration : 2h 13mn
Bit rate : 1 218 Kbps
Width : 1 920 pixels
Height : 800 pixels
Display aspect ratio : 2.40:1
Frame rate mode : Constant
Frame rate : 23.976 (24000/1001) fps
Color space : YUV
Chroma subsampling : 4:2:0
Bit depth : 8 bits
Bits/(Pixel*Frame) : 0.033
Stream size : 1.14 GiB (90%)
Writing library : x265 2.5+9-fdf39a97ecb8:[Linux][GCC 6.4.0][64 bit] 8bit+10bit+12bit
Encoding settings : cpuid=1173503 / frame-threads=3 / wpp / no-pmode / no-pme / no-psnr / no-ssim / log-level=2 / input-csp=1 / input-res=1920x800 / interlace=0 / total-frames=0 / level-idc=0 / high-tier=1 / uhd-bd=0 / ref=3 / no-allow-non-conformance / no-repeat-headers / annexb / no-aud / no-hrd / info / hash=0 / no-temporal-layers / open-gop / min-keyint=23 / keyint=250 / bframes=4 / b-adapt=2 / b-pyramid / bframe-bias=0 / rc-lookahead=20 / lookahead-slices=5 / scenecut=40 / no-intra-refresh / ctu=64 / min-cu-size=8 / no-rect / no-amp / max-tu-size=32 / tu-inter-depth=1 / tu-intra-depth=1 / limit-tu=0 / rdoq-level=0 / dynamic-rd=0.00 / no-ssim-rd / signhide / no-tskip / nr-intra=0 / nr-inter=0 / no-constrained-intra / strong-intra-smoothing / max-merge=2 / limit-refs=3 / no-limit-modes / me=1 / subme=2 / merange=57 / temporal-mvp / weightp / no-weightb / no-analyze-src-pics / deblock=0:0 / sao / no-sao-non-deblock / rd=3 / no-early-skip / rskip / no-fast-intra / no-tskip-fast / no-cu-lossless / no-b-intra / rdpenalty=0 / psy-rd=2.00 / psy-rdoq=0.00 / no-rd-refine / analysis-reuse-mode=0 / no-lossless / cbqpoffs=0 / crqpoffs=0 / rc=crf / crf=23.5 / qcomp=0.60 / qpstep=4 / stats-write=0 / stats-read=0 / ipratio=1.40 / pbratio=1.30 / aq-mode=1 / aq-strength=1.00 / cutree / zone-count=0 / no-strict-cbr / qg-size=32 / no-rc-grain / qpmax=69 / qpmin=0 / no-const-vbv / sar=1 / overscan=0 / videoformat=5 / range=0 / colorprim=2 / transfer=2 / colormatrix=2 / chromaloc=0 / display-window=0 / max-cll=0,0 / min-luma=0 / max-luma=255 / log2-max-poc-lsb=8 / vui-timing-info / vui-hrd-info / slices=1 / opt-qp-pps / opt-ref-list-length-pps / no-multi-pass-opt-rps / scenecut-bias=0.05 / no-opt-cu-delta-qp / no-aq-motion / no-hdr / no-hdr-opt / no-dhdr10-opt / analysis-reuse-level=5 / scale-factor=0 / refine-intra=0 / refine-inter=0 / refine-mv=0 / no-limit-sao / ctu-info=0
Language : English
Default : Yes
Forced : No
Audio
ID : 2
Format : AAC
Format/Info : Advanced Audio Codec
Format profile : LC
Codec ID : A_AAC
Duration : 2h 13mn
Bit rate : 128 Kbps
Channel(s) : 2 channels
Channel positions : Front: L R
Sampling rate : 48.0 KHz
Frame rate : 46.875 fps (1024 spf)
Compression mode : Lossy
Delay relative to video : -42ms
Stream size : 122 MiB (9%)
Title : O'zbek tilida [AxeL]
Language : Uzbek
Default : Yes
Forced : No
-
.torrent yuklash

Yuqori tezlikda va bepul ko‘chirish!

Qanday yuklab olinadi? · Torrent nima o‘zi? · Reyting va cheklovlar

Profil ShX

UmarShoh

Jins:
Yigit
Staj:
1 yil 3 oy
Xabarlar:
370
Taqiq:

AxeL, Eeeee qoyil posterga gap yo'q ! Iloji bo'lsa bizga ham o'rgating shunday poster tayyorlashni! aa

Mavzu yaratish 17-Fev-2019 16:39 (4 soat o‘tgach)

Iqitibos

Profil ShX

Striker

Jins:
Yigit
Staj:
1 yil 10 oy
Xabarlar:
53
Taqiq:

Qoyil gap yo'q

Mavzu yaratish 17-Fev-2019 16:58 (18 daqiqa o‘tgach)

Iqitibos

Profil ShX

AxeL ®

Jins:
Yigit
Staj:
1 yil 2 oy
Xabarlar:
740

Qayerdan: Gronland, Norway

Taqiq:

UmarShoh, hudo holasa videorolik qilaman Striker, rahmat, sizlar uchun hammasi

Mavzu yaratish 17-Fev-2019 18:05 (1 soat 6 daqiqa o‘tgach)

Iqitibos

Profil ShX
Xabarlarni ko‘rsatish:    

Hozirgi vaqt: 17-Iyun 17:33

Vaqtlar farqi: UTC + 5



Siz mavzu yaratishingiz mumkin emas
Siz xabarlarga javob qaytarishingiz mumkin emas
Siz o‘z xabarlaringizni tahrirlashingiz mumkin emas
Siz o‘z xabarlaringizni o‘chirishingiz mumkin emas
Siz so‘rovlarda ovoz berishingiz mumkin emas
Siz xabalarga fayllarni biriktirishingiz mumkin emas
Siz fayllarni ko‘chirishingiz mumkin emas