˂
˃
Tarqatmalar statistikasi
Ko‘chiraman: [ 2 ]
Ko‘chirmoqdaman: [ 5 ]
Ko‘chirib bo‘ldim: [ 14 ]
 
     
 
 

AxeL ®

Jins:
Yigit
Staj:
1 yil 1 oy
Xabarlar:
711

Qayerdan: Gronland, Norway

Taqiq:

Uch Bahodir va Shamaha malikasi | Три богатыря и Шамаханская царица- Chiqqan yili: 2010
Davlat: Rossiya
Janr: Fantaziya, sarguzasht, kulguli
Davomiyligi: 01:16:42
Tarjima: Professional (Ko'p ovozli kadr ortidan) O'zbek tilida-Rejissyor: Sergey Glezin | Сергей Глезин-Ssenariy: Aleksandr Boyarskiy, Olga Nikiforova
Prodyuser: Sergey Selyanov, Aleksandr Boyarskiy
Kompozitor: Zaxar Antonov
Rassom: Elena Lavrenteva, Oleg Markelov, Olga Ovinnikova-Rollarni ovozlashtirganlar: Dmitriy Bikovskiy-Romashov, Valeriy Solovev, Oleg Kulikovich, Sergey Makoveskiy, Anna Geller, Dmitriy Visotskiy, Konstantin Bronzit, Liya Medvedeva-Tavsif: Ko'plab shohlarni va oddiy odamlarni aqldan ozdirgan afsonaviy Shamaha qirolichasi Kiev Qiroligaga ko'z tikdi. U unga g'ayrioddiy mehr bilan kasal bo'lib qoldi. Voqealar yomon tus oldi...-Rossiyada ishlab topilgan: $19 010 585
Muhlislari: Rossiya 3.34 mln, Ukraina 276.1 ming.
Premyera (Dunyo bo'ylab): 30-dekabr 2010 yil, ...
Premyera (RF): 30-dekabr 2010 yil, «Наше Кино» 3D
Blu-Rayga reliz: 27-yanvar 2011 yil, «Мистерия Звука», ...
DVDga reliz: 27-yanvar 2011 yil, «Мистерия Звука», ...-Videoning sifati: BDRip HEVC 1080p
Video format: MKV
Video: HVC1 1920x1080 24fps 2 255 Kbps
Audio: Dolby AC3 48000Hz 6ch 448kbps Rus tilida
Audio: MP3 44100Hz stereo 128kbps O'zbek tilida
-

Media Info

General
Unique ID : 98338482792111405486107129837107198579 (0x49FB4D88DAEA156A2843FEF4F796BA73)
Complete name : D:\Films\Multfilms\HD Video\Uch Bahodir va Shamaha malikasi.2010.BDRip.1080p.HEVC.mkv
Format : Matroska
Format version : Version 4 / Version 2
File size : 1.51 GiB
Duration : 1h 16mn
Overall bit rate : 2 833 Kbps
Encoded date : UTC 2019-02-16 16:09:45
Writing application : mkvmerge v22.0.0 ('At The End Of The World') 64-bit
Writing library : libebml v1.3.5 + libmatroska v1.4.8
Attachements : cover1.jpg
Video
ID : 1
Format : HEVC
Format/Info : High Efficiency Video Coding
Format profile : Main@L4.1@High
Codec ID : V_MPEGH/ISO/HEVC
Duration : 1h 16mn
Bit rate : 2 255 Kbps
Width : 1 920 pixels
Height : 1 080 pixels
Display aspect ratio : 16:9
Frame rate mode : Constant
Frame rate : 24.000 fps
Color space : YUV
Chroma subsampling : 4:2:0
Bit depth : 8 bits
Bits/(Pixel*Frame) : 0.045
Stream size : 1.21 GiB (80%)
Writing library : x265 2.5+16-bac53338585c:[Windows][GCC 7.1.0][64 bit] 8bit
Encoding settings : cpuid=1050111 / frame-threads=5 / numa-pools=4 / wpp / no-pmode / no-pme / no-psnr / no-ssim / log-level=3 / input-csp=1 / input-res=1920x1080 / interlace=0 / total-frames=0 / level-idc=41 / high-tier=1 / uhd-bd=0 / ref=4 / no-allow-non-conformance / no-repeat-headers / annexb / no-aud / no-hrd / info / hash=0 / no-temporal-layers / open-gop / min-keyint=23 / keyint=250 / bframes=10 / b-adapt=2 / b-pyramid / bframe-bias=0 / rc-lookahead=40 / lookahead-slices=6 / scenecut=40 / no-intra-refresh / ctu=64 / min-cu-size=8 / no-rect / no-amp / max-tu-size=32 / tu-inter-depth=2 / tu-intra-depth=2 / limit-tu=0 / rdoq-level=0 / dynamic-rd=0.00 / no-ssim-rd / signhide / no-tskip / nr-intra=0 / nr-inter=0 / no-constrained-intra / strong-intra-smoothing / max-merge=3 / limit-refs=3 / no-limit-modes / me=2 / subme=3 / merange=32 / temporal-mvp / weightp / weightb / no-analyze-src-pics / deblock=-3:-3 / no-sao / no-sao-non-deblock / rd=3 / no-early-skip / rskip / no-fast-intra / no-tskip-fast / no-cu-lossless / no-b-intra / no-splitrd-skip / rdpenalty=0 / psy-rd=2.00 / psy-rdoq=0.00 / no-rd-refine / analysis-reuse-mode=0 / no-lossless / cbqpoffs=0 / crqpoffs=0 / rc=crf / crf=19.0 / qcomp=0.60 / qpstep=4 / stats-write=0 / stats-read=0 / vbv-maxrate=50000 / vbv-bufsize=35714 / vbv-init=0.9 / crf-max=30.0 / crf-min=0.0 / ipratio=1.40 / pbratio=1.30 / aq-mode=1 / aq-strength=1.00 / cutree / zone-count=0 / no-strict-cbr / qg-size=32 / no-rc-grain / qpmax=69 / qpmin=0 / no-const-vbv / sar=1 / overscan=0 / videoformat=5 / range=0 / colorprim=1 / transfer=1 / colormatrix=1 / chromaloc=0 / display-window=0 / max-cll=0,0 / min-luma=0 / max-luma=255 / log2-max-poc-lsb=8 / vui-timing-info / vui-hrd-info / slices=1 / opt-qp-pps / opt-ref-list-length-pps / no-multi-pass-opt-rps / scenecut-bias=0.05 / no-opt-cu-delta-qp / no-aq-motion / no-hdr / no-hdr-opt / no-dhdr10-opt / analysis-reuse-level=5 / scale-factor=0 / refine-intra=0 / refine-inter=0 / refine-mv=0 / no-limit-sao / ctu-info=0
Language : Russian
Default : Yes
Forced : No
Color range : Limited
Color primaries : BT.709
Transfer characteristics : BT.709
Matrix coefficients : BT.709
Audio #1
ID : 2
Format : AC-3
Format/Info : Audio Coding 3
Mode extension : CM (complete main)
Format settings, Endianness : Big
Codec ID : A_AC3
Duration : 1h 16mn
Bit rate mode : Constant
Bit rate : 448 Kbps
Channel(s) : 6 channels
Channel positions : Front: L C R, Side: L R, LFE
Sampling rate : 48.0 KHz
Frame rate : 31.250 fps (1536 spf)
Compression mode : Lossy
Stream size : 245 MiB (16%)
Title : Rus tilida (Original) AxeL
Language : Russian
Default : Yes
Forced : No
Audio #2
ID : 3
Format : MPEG Audio
Format version : Version 1
Format profile : Layer 3
Mode : Joint stereo
Mode extension : MS Stereo
Codec ID : A_MPEG/L3
Codec ID/Hint : MP3
Duration : 1h 16mn
Bit rate mode : Constant
Bit rate : 128 Kbps
Channel(s) : 2 channels
Sampling rate : 44.1 KHz
Frame rate : 38.281 fps (1152 spf)
Compression mode : Lossy
Stream size : 70.1 MiB (5%)
Title : O'zbek tilida (DUB) AxeL
Writing library : LAME3.97
Language : Uzbek
Default : No
Forced : No
--
.torrent yuklash

Yuqori tezlikda va bepul ko‘chirish!

Qanday yuklab olinadi? · Torrent nima o‘zi? · Reyting va cheklovlar

Profil ShX
Xabarlarni ko‘rsatish:    

Hozirgi vaqt: 18-Apr 19:35

Vaqtlar farqi: UTC + 5



Siz mavzu yaratishingiz mumkin emas
Siz xabarlarga javob qaytarishingiz mumkin emas
Siz o‘z xabarlaringizni tahrirlashingiz mumkin emas
Siz o‘z xabarlaringizni o‘chirishingiz mumkin emas
Siz so‘rovlarda ovoz berishingiz mumkin emas
Siz xabalarga fayllarni biriktirishingiz mumkin emas
Siz fayllarni ko‘chirishingiz mumkin emas