˂
˃
Tarqatmalar statistikasi
Ko‘chiraman: [ 2 ]
Ko‘chirmoqdaman: [ 5 ]
Ko‘chirib bo‘ldim: [ 24 ]
 
     
 
 

AxeL ®

Jins:
Yigit
Staj:
1 yil 1 oy
Xabarlar:
711

Qayerdan: Gronland, Norway

Taqiq:

Alovuddinning yangi sarguzashtlari 2 / Приключения Аладдина 2 / Alad'2- Chiqqan yili: 2018
Davlat: Fransiya
Janr: Komediya
Davomiyligi: 01:37:50
Tarjima: Professional (dublyaj qilingan) O'zbek tilida Yoshlar
Rejissyor: Leonel Steketi
Rollarda: Kev Adams, Jamel Debbouz, Vanessa Guide, Erik Judor, Ramzi Bedia, va Vahid Bouzidi.
Tavsif: Aladdin va malika o'z vaqtini o'tkazadigan Bag'doddagi sehrli saroyida dahshatli va xavfli diktator paydo bo'ladi. Chaqirilmagan mehmonlardan qutulish va malikani yo'qotmaslik uchun Aladdin sarguzashtli va xavfli yo'lda ketishi kerak: dunyoning yarmini sexrli gilamda uchib, Sehrli chiroqni, uning do'sti Jinni topib, u bilan birga Diktator bilan jang qiladi.
Videoning sifati: BluRay 1080p
Video format: MKV
Video: MPEG4 Video (H264) 1920x808 23.976fps 2 800 kbps
Audio: AAC 48000Hz stereo 2ch 128 kbps O'zbek tilida

MI

General
Unique ID : 152951865407093153950835108432686211302 (0x7311753001278F083BE99BF3B6E9E0E6)
Format : Matroska
Format version : Version 4 / Version 2
File size : 2.00 GiB
Duration : 1h 37mn
Overall bit rate : 2 929 Kbps
Movie name : Alad'2
Encoded date : UTC 2019-02-18 03:57:31
Writing application : mkvmerge v22.0.0 ('At The End Of The World') 64-bit
Writing library : libebml v1.3.5 + libmatroska v1.4.8
Video
ID : 1
Format : AVC
Format/Info : Advanced Video Codec
Format profile : High@L4.1
Format settings, CABAC : Yes
Format settings, ReFrames : 4 frames
Codec ID : V_MPEG4/ISO/AVC
Duration : 1h 37mn
Bit rate : 2 800 Kbps
Width : 1 920 pixels
Height : 808 pixels
Display aspect ratio : 2.40:1
Original display aspect ratio : 2.40:1
Frame rate mode : Constant
Frame rate : 23.976 (24000/1001) fps
Color space : YUV
Chroma subsampling : 4:2:0
Bit depth : 8 bits
Scan type : Progressive
Bits/(Pixel*Frame) : 0.075
Stream size : 1.91 GiB (96%)
Writing library : x264 core 155 r2893 b00bcaf
Encoding settings : cabac=1 / ref=1 / deblock=1:0:0 / analyse=0x3:0x113 / me=hex / subme=2 / psy=1 / psy_rd=1.00:0.00 / mixed_ref=0 / me_range=16 / chroma_me=1 / trellis=0 / 8x8dct=1 / cqm=0 / deadzone=21,11 / fast_pskip=1 / chroma_qp_offset=0 / threads=25 / lookahead_threads=6 / sliced_threads=0 / nr=0 / decimate=1 / interlaced=0 / bluray_compat=0 / constrained_intra=0 / bframes=3 / b_pyramid=2 / b_adapt=1 / b_bias=0 / direct=1 / weightb=1 / open_gop=0 / weightp=1 / keyint=240 / keyint_min=24 / scenecut=40 / intra_refresh=0 / rc_lookahead=10 / rc=2pass / mbtree=1 / bitrate=2800 / ratetol=1.0 / qcomp=0.60 / qpmin=0 / qpmax=69 / qpstep=4 / cplxblur=20.0 / qblur=0.5 / vbv_maxrate=62500 / vbv_bufsize=78125 / nal_hrd=none / filler=0 / ip_ratio=1.40 / aq=1:1.00
Default : Yes
Forced : No
Color range : Limited
Color primaries : BT.709
Transfer characteristics : BT.709
Matrix coefficients : BT.709
Audio
ID : 2
Format : AAC
Format/Info : Advanced Audio Codec
Format profile : LC
Codec ID : A_AAC
Duration : 1h 37mn
Bit rate : 128 Kbps
Channel(s) : 2 channels
Channel positions : Front: L R
Sampling rate : 48.0 KHz
Frame rate : 46.875 fps (1024 spf)
Compression mode : Lossy
Delay relative to video : -5ms
Stream size : 89.6 MiB (4%)
Title : O'zbek tilida
Language : Uzbek
Default : Yes
Forced : No
.torrent yuklash

Yuqori tezlikda va bepul ko‘chirish!

Qanday yuklab olinadi? · Torrent nima o‘zi? · Reyting va cheklovlar

Profil ShX
Xabarlarni ko‘rsatish:    

Hozirgi vaqt: 18-Apr 20:01

Vaqtlar farqi: UTC + 5



Siz mavzu yaratishingiz mumkin emas
Siz xabarlarga javob qaytarishingiz mumkin emas
Siz o‘z xabarlaringizni tahrirlashingiz mumkin emas
Siz o‘z xabarlaringizni o‘chirishingiz mumkin emas
Siz so‘rovlarda ovoz berishingiz mumkin emas
Siz xabalarga fayllarni biriktirishingiz mumkin emas
Siz fayllarni ko‘chirishingiz mumkin emas