˂
˃
Tarqatmalar statistikasi
Ko‘chiraman: [ 3 ]
Ko‘chirmoqdaman: [ 8 ]
Ko‘chirib bo‘ldim: [ 32 ]
 
     
 
 

Gr@nd ®

Jins:
Yigit
Staj:
1 yil 8 oy
Xabarlar:
166

Qayerdan: Jizzax Forish

Taqiq:

-Hindiston o'g'lonlar | Банды Индостана | Thugs of Hindostan- -Chiqqan yili: 2018
Davlat: Hindiston
Janr: Jangari, sevgi, tarixiy
Davomiyligi: 02:44:07-Tarjima: Professional (dublyaj qilingan) O'zbek tilida-Rejissyor: Vijay Krishna Acharya-Rollarda: Katrina Kaif, Aamir Kxan, Amitabx Bachchan, Fatima Sana Shaikx, Abdul Kvadir Amin, Lloyd Ouen, Ronit Roy, Moxammеd Zishan Ayyub, Satyadеv Kancharana, Djo Atstsopardi-Tavsif: 1795 Angliya Hindistonni o'z koloniyasiga aylantirgan Sharqiy Hindiston kompaniyasining yordami bilan. Biroq, o'rnatilgan tartibga qo'shilmaydigan qahramonlar bor va ularning eng mashhurlari, birinchi navbatda, ozodlikni o'rnatgan dengiz qurollari Azaadning lideri. Imperatorning barqarorligi uchun bu tahdidni bartaraf etish uchun, ingliz qo'mondoni kichik bir gangsterni, hech narsaga pul tayyorlamaydigan, asossiz zolimni ishga soladi. U to'daga kirib, Azadni o'ldirishi kerak.-Videoning sifati: BDRip 720p
Video format: MKV-Video: MPEG4 Video (H264) 1280x720 24fps 3 936 Kbps
Audio: MP3 48000Hz / 2ch / 128kbps Uzb
-

Media Info

General
Unique ID : 201418787713912777427263572128829798901 (0x9787D8F345B29DB1A296B9E3C703F9F5)
Format : Matroska
Format version : Version 4 / Version 2
File size : 4.75 GiB
Duration : 2h 44mn
Overall bit rate : 4 146 Kbps
Movie name : Xusan_Gr@nd
Encoded date : UTC 2019-02-15 03:40:53
Writing application : mkvmerge v6.8.0 ('Theme for Great Cities') 64bit built on Mar 2 2014 21:34:26
Writing library : libebml v1.3.0 + libmatroska v1.4.1
Video
ID : 1
Format : AVC
Format/Info : Advanced Video Codec
Format profile : Baseline@L3.1
Format settings, CABAC : No
Format settings, ReFrames : 1 frame
Format settings, GOP : M=1, N=12
Codec ID : V_MPEG4/ISO/AVC
Duration : 2h 44mn
Bit rate : 3 936 Kbps
Width : 1 280 pixels
Height : 720 pixels
Display aspect ratio : 16:9
Frame rate mode : Variable
Frame rate : 24.000 fps
Color space : YUV
Chroma subsampling : 4:2:0
Bit depth : 8 bits
Scan type : Progressive
Bits/(Pixel*Frame) : 0.178
Stream size : 4.51 GiB (95%)
Default : Yes
Forced : No
Audio
ID : 2
Format : MPEG Audio
Format version : Version 1
Format profile : Layer 3
Mode : Joint stereo
Mode extension : MS Stereo
Codec ID : A_MPEG/L3
Codec ID/Hint : MP3
Duration : 2h 44mn
Bit rate mode : Constant
Bit rate : 128 Kbps
Channel(s) : 2 channels
Sampling rate : 44.1 KHz
Compression mode : Lossy
Stream size : 150 MiB (3%)
Title : Xusan_Gr@nd
Writing library : LAME3.98.2
Default : No
Forced : No
--
.torrent yuklash

Yuqori tezlikda va bepul ko‘chirish!

Qanday yuklab olinadi? · Torrent nima o‘zi? · Reyting va cheklovlar

Profil ShX

dilshod6663

Jins:
Ko‘rsatilmagan
Staj:
1 yil 6 oy
Xabarlar:
78
Taqiq:

RELIZ UCHUN RAXMAT TARQALISH ZUR TARQATYAPSILAR GAP YUQ RAXMAT

Mavzu yaratish 19-Fev-2019 13:39 (15 soat o‘tgach)

Iqitibos

Profil ShX

Gr@nd ®

Jins:
Yigit
Staj:
1 yil 8 oy
Xabarlar:
166

Qayerdan: Jizzax Forish

Taqiq:

dilshod6663, Raxmat etibor uchun

Mavzu yaratish 19-Fev-2019 21:56 (8 soat o‘tgach)

Iqitibos

Profil ShX

Bahodir1202

Jins:
Yigit
Staj:
1 yil 7 oy
Xabarlar:
3
Taqiq:

Tarqatma yoqku. kochirib bolmayapti

Mavzu yaratish 20-Fev-2019 00:01 (2 soat 5 daqiqa o‘tgach)

Iqitibos

Profil ShX
Xabarlarni ko‘rsatish:    

Hozirgi vaqt: 17-Iyun 17:55

Vaqtlar farqi: UTC + 5



Siz mavzu yaratishingiz mumkin emas
Siz xabarlarga javob qaytarishingiz mumkin emas
Siz o‘z xabarlaringizni tahrirlashingiz mumkin emas
Siz o‘z xabarlaringizni o‘chirishingiz mumkin emas
Siz so‘rovlarda ovoz berishingiz mumkin emas
Siz xabalarga fayllarni biriktirishingiz mumkin emas
Siz fayllarni ko‘chirishingiz mumkin emas