˂
˃
Tarqatmalar statistikasi
Ko‘chiraman: [ 2 ]
Ko‘chirmoqdaman: [ 5 ]
Ko‘chirib bo‘ldim: [ 15 ]
 
     
 
 

AxeL ®

Jins:
Yigit
Staj:
1 yil 3 oy
Xabarlar:
741

Qayerdan: Gronland, Norway

Taqiq:

Daydi to'tining qaytishi / Возвращение блудного попугая
-Chiqqan yili: 1988
Davlat: SSSR, Rossiya
Janr: multfilm, oilaviy
Davomiyligi: 00:09:34
Tarjima: Professional (dublyaj qilingan) O'zbek tilida-Rejissyor: A. Kurlyandskiy, V. Karavaev / А. Курляндский, В. Караваев-Rollarni ovozlashtirganlar: G. Hazanov, M. Korabelnikova, G. Kachin, V. Karavaev-Tavsif: Hamma narsadan zerikkan Kesha, uyidan bosh olib chiqib ketdi...Yo'lda Vasiliy ismli odamni uchratadi. Uni porloq yo'l sovxozi kutmoqda...-Videoning sifati: DVD5
Video format: MKV
Video: MPEG4 Video (H264) 720x576 (4:3) 25fps 2 245 Kbps
Audio: AAC 48000Hz 6ch 265 Kbps Rus tilida
Audio 2: AAC 48000Hz stereo 2ch 128 Kbps O'zbek tilida

Media Info

General
Unique ID : 140819466878003080477757505400343381795 (0x69F0D7C1D371613A068C778D793C4723)
Complete name : D:\Films\Multfilms\HD Video\Daydi to'tining qaytishi.AxeL.AVC.1988.mkv
Format : Matroska
Format version : Version 4 / Version 2
File size : 181 MiB
Duration : 9mn 34s
Overall bit rate : 2 643 Kbps
Encoded date : UTC 2019-02-17 07:52:53
Writing application : mkvmerge v22.0.0 ('At The End Of The World') 64-bit
Writing library : libebml v1.3.5 + libmatroska v1.4.8
Attachements : cover.jpg
Video
ID : 1
Format : AVC
Format/Info : Advanced Video Codec
Format profile : High@L3.1
Format settings, CABAC : Yes
Format settings, ReFrames : 8 frames
Codec ID : V_MPEG4/ISO/AVC
Duration : 9mn 34s
Bit rate : 2 245 Kbps
Width : 720 pixels
Height : 576 pixels
Display aspect ratio : 4:3
Original display aspect ratio : 5:4
Frame rate mode : Constant
Frame rate : 25.000 fps
Standard : PAL
Color space : YUV
Chroma subsampling : 4:2:0
Bit depth : 8 bits
Scan type : Progressive
Bits/(Pixel*Frame) : 0.216
Stream size : 154 MiB (85%)
Title : tRuAVC
Writing library : x264 core 67 r1140kVAQmod 37424f8
Encoding settings : cabac=1 / ref=8 / deblock=1:0:0 / analyse=0x3:0x133 / me=esa / subme=7 / psy_rd=1.0:0.0 / mixed_ref=1 / me_range=32 / chroma_me=1 / trellis=2 / 8x8dct=1 / cqm=0 / deadzone=21,11 / chroma_qp_offset=-2 / threads=2 / thread_queue=2 / nr=0 / decimate=1 / mbaff=0 / bframes=8 / b_pyramid=1 / b_adapt=1 / b_bias=0 / direct=3 / wpredb=1 / keyint=250 / keyint_min=25 / scenecut=40 / rc=crf / crf=21.0000 / qcomp=0.60 / qpmin=10 / qpmax=51 / qpstep=4 / ip_ratio=1.40 / pb_ratio=1.30 / aq=1:1.00:0:10.00:1.00:1.00:1.00
Language : Russian
Default : Yes
Forced : No
Audio #1
ID : 2
Format : AAC
Format/Info : Advanced Audio Codec
Format profile : LC
Codec ID : A_AAC
Duration : 9mn 33s
Bit rate : 265 Kbps
Channel(s) : 6 channels
Channel positions : Front: L C R, Side: L R, LFE
Sampling rate : 48.0 KHz
Frame rate : 46.875 fps (1024 spf)
Compression mode : Lossy
Stream size : 18.2 MiB (10%)
Title : Rus tilida
Language : Russian
Default : Yes
Forced : No
Audio #2
ID : 3
Format : AAC
Format/Info : Advanced Audio Codec
Format profile : LC
Codec ID : A_AAC
Duration : 9mn 34s
Bit rate : 128 Kbps
Channel(s) : 2 channels
Channel positions : Front: L R
Sampling rate : 48.0 KHz
Frame rate : 46.875 fps (1024 spf)
Compression mode : Lossy
Stream size : 8.75 MiB (5%)
Title : O'zbek tilida [axel]
Language : Uzbek
Default : No
Forced : No

Lavhalar

.torrent yuklash

Yuqori tezlikda va bepul ko‘chirish!

Qanday yuklab olinadi? · Torrent nima o‘zi? · Reyting va cheklovlar

Profil ShX

Neo

Jins:
Ko‘rsatilmagan
Staj:
1 yil 4 oy
Xabarlar:
4
Taqiq:

Катта Рахмат сизга мультик учун ешлигимни эслатворди агар колган сериялари булса релиз килсез зур буларди aa aa aa aa az az az az

Mavzu yaratish 19-Fev-2019 11:48 (13 soat o‘tgach)

Iqitibos

Profil ShX

AxeL ®

Jins:
Yigit
Staj:
1 yil 3 oy
Xabarlar:
741

Qayerdan: Gronland, Norway

Taqiq:

Neo, arzimaydi, hammasi sizlar uchun, yana bitta syurpriz tayyorlamoqdaman, hudo holasa shu oyda reliz qilaman, SSSR multfilmlari 5 talikmi yoki 3 talikmi bo'ladi, ha aytgancha hozircha bu multikni qolgan qismlarini topolmadim, topsam reliz qilaman uniyam

Mavzu yaratish 19-Fev-2019 12:12 (24 daqiqa o‘tgach)

Iqitibos

Profil ShX

N.U.R.I.K.B.E.K

Jins:
Yigit
Staj:
1 yil 7 oy
Xabarlar:
481

Qayerdan: Jizzax. Paxtakor

Taqiq:

Manabu rus dalasi bepoyon dala oyi nur sochar.

Mavzu yaratish 19-Fev-2019 12:36 (23 daqiqa o‘tgach)

Iqitibos

Profil ShX

NodirbekStudio

Jins:
Ko‘rsatilmagan
Staj:
23 kun
Xabarlar:
1
Taqiq:

Daydi to'tining qaytishi / Возвращение блудного попугая (A. Kurlyandskiy, V. Karavaev / А. Курляндский, В. Караваев) [1988, multfilm, oilaviy, DVD5]

Mavzu yaratish 08-Iyun-2019 06:51 (3 oy 16 kun o‘tgach)

Iqitibos

Profil ShX
Xabarlarni ko‘rsatish:    

Hozirgi vaqt: 27-Iyun 09:51

Vaqtlar farqi: UTC + 5



Siz mavzu yaratishingiz mumkin emas
Siz xabarlarga javob qaytarishingiz mumkin emas
Siz o‘z xabarlaringizni tahrirlashingiz mumkin emas
Siz o‘z xabarlaringizni o‘chirishingiz mumkin emas
Siz so‘rovlarda ovoz berishingiz mumkin emas
Siz xabalarga fayllarni biriktirishingiz mumkin emas
Siz fayllarni ko‘chirishingiz mumkin emas