˂
˃
Tarqatmalar statistikasi
Ko‘chirmoqdaman: [ 9 ]
Ko‘chirib bo‘ldim: [ 36 ]
 
     
 
 

behaking ®

Jins:
Yigit
Staj:
11 oy 9 kun
Xabarlar:
8
Taqiq:

-MAQSAD- Chiqqan yili: 2018-yil
Davlat: O'zbekiston
Janri: Detektiv-triller
Davomiyligi: 01:34:44
Tarjima: Talab etilmaydi-Rejissiyor: Rustam Meliev-Sеnariy: Jamshid Asadov
Prodyusеr: Xojik Jahangirovich
Tasvirchi: Bahriddin Shamsutdinov
Bastakor: Ubaydullo Karimov, Sheri Marshel-Rollarda:Jamshid Asadov, Shaxzoda Matchonova, Seydulla Moldaxanov , Yulduz Rajabova , Anvar Kartaev , Kiara Krit , Bobur Yo`ldoshev , Toxir Saidov , Nigora Karimboeva , Aziza Pirmqulova-Film haqida:Kinoni o'ziz ko'rib izoh qoldiring!-Sifat: WEBRip720
Format: MP4
Video kodek: MPEG4
Audio kodek: AAC
Video: H.264/AVC 1280x720 / 29.970fps / 931 kb/s
Audio: AAC / 44100Hz stereo / 128 / Kbps

Media Info

General
Complete name : C:\Users\MehroJ\Downloads\Video\Maqsad (o'zbek film) - Максад (узбекфильм).mp4
Format : MPEG-4
Format profile : Base Media / Version 2
Codec ID : mp42 (isom/mp42)
File size : 720 MiB
Duration : 1 h 34 min
Overall bit rate mode : Variable
Overall bit rate : 1 063 kb/s
Encoded date : UTC 2019-02-17 10:09:07
Tagged date : UTC 2019-02-17 10:09:07
gsst : 0
gstd : 5684941
Video
ID : 1
Format : AVC
Format/Info : Advanced Video Codec
Format profile : Main@L3.1
Format settings : CABAC / 3 Ref Frames
Format settings, CABAC : Yes
Format settings, ReFrames : 3 frames
Codec ID : avc1
Codec ID/Info : Advanced Video Coding
Duration : 1 h 34 min
Bit rate : 931 kb/s
Width : 1 280 pixels
Height : 720 pixels
Display aspect ratio : 16:9
Frame rate mode : Constant
Frame rate : 29.970 (30000/1001) FPS
Color space : YUV
Chroma subsampling : 4:2:0
Bit depth : 8 bits
Scan type : Progressive
Bits/(Pixel*Frame) : 0.034
Stream size : 631 MiB (88%)
Title : ISO Media file produced by Google Inc. Created on: 02/17/2019.
Encoded date : UTC 2019-02-17 10:09:07
Tagged date : UTC 2019-02-17 10:09:07
Color range : Limited
Color primaries : BT.709
Transfer characteristics : BT.709
Matrix coefficients : BT.709
Audio
ID : 2
Format : AAC
Format/Info : Advanced Audio Codec
Format profile : LC
Codec ID : mp4a-40-2
Duration : 1 h 34 min
Bit rate mode : Variable
Bit rate : 128 kb/s
Channel(s) : 2 channels
Channel positions : Front: L R
Sampling rate : 44.1 kHz
Frame rate : 43.066 FPS (1024 SPF)
Compression mode : Lossy
Stream size : 86.7 MiB (12%)
Title : ISO Media file produced by Google Inc. Created on: 02/17/2019.
Language : Russian
Encoded date : UTC 2019-02-17 10:09:07
Tagged date : UTC 2019-02-17 10:09:07
-LAVHALAR-

Skrinlist

.torrent yuklash

Yuqori tezlikda va bepul ko‘chirish!

Qanday yuklab olinadi? · Torrent nima o‘zi? · Reyting va cheklovlar



So‘ngi marta tahrirlandi: behaking (2019-02-19 00:24), Jami tahrirlangan 1 marta
Profil ShX

AxeL

Jins:
Yigit
Staj:
1 yil 3 oy
Xabarlar:
741

Qayerdan: Gronland, Norway

Taqiq:

7672Rollarda:Жамшид Асадов, Шахзода Матчонова, Сейдулла Молдаханов, Юлдуз Ражабова, Анвар Картаев, Киара Крит, Бобур Йулдошев, Тохир Саидов, Нигора Каримбоева, Азиза Примкулова
aktyorlar ismlarini lotin alifbosida yozing

Mavzu yaratish 19-Fev-2019 00:11 (29 daqiqa o‘tgach)

Iqitibos

Profil ShX

MRLG

Jins:
Yigit
Staj:
1 yil 10 oy
Xabarlar:
606
Taqiq:

behaking, Joylagan skrinshotlaringiz texnik ma'lumotlardagi lavhalar bilan mos emas. Ushbu qo'llanma bo'yicha skrinshotlar oling. http://uztracker.me/viewtopic.php?t=197

Mavzu yaratish 19-Fev-2019 14:50 (14 soat o‘tgach)

Iqitibos

Profil ShX
Xabarlarni ko‘rsatish:    

Hozirgi vaqt: 27-Iyun 08:55

Vaqtlar farqi: UTC + 5



Siz mavzu yaratishingiz mumkin emas
Siz xabarlarga javob qaytarishingiz mumkin emas
Siz o‘z xabarlaringizni tahrirlashingiz mumkin emas
Siz o‘z xabarlaringizni o‘chirishingiz mumkin emas
Siz so‘rovlarda ovoz berishingiz mumkin emas
Siz xabalarga fayllarni biriktirishingiz mumkin emas
Siz fayllarni ko‘chirishingiz mumkin emas