˂
˃
Tarqatmalar statistikasi
Ko‘chiraman: [ 3 ]
Ko‘chirmoqdaman: [ 13 ]
Ko‘chirib bo‘ldim: [ 33 ]
 
     
 
 

AxeL ®

Jins:
Yigit
Staj:
1 yil 2 oy
Xabarlar:
740

Qayerdan: Gronland, Norway

Taqiq:

-Krid 2 / Крид 2 / Creed II - Chiqqan yili: 2018
Davlat: AQSh
Janr: drama, sport
Davomiyligi: 02:10:45
Tarjima: Professional (ko'p ovozli, MY5 kanali) o'zbek tilida-Rejissyor: Stiven Keypl
Rollarda: Maykl B. Jordan, Silvestr Stallone, Tessa Tompson, Filisiya Rashad, Dolf Lundgren, Florian Muntyanu, Rassel Xornsbi, Vud Xarris, Maylo Ventimilya,...-Tavsif: Otasining eski do'sti va afsonaviy chempion Roki bilan kurashgan irqiy bokschi Adonis Kred qaytmoqda. Jangchilarning ikki avlodi boks yordamida hayotlarining dramalarini yana bir bor tushunishadi.- -Videoning sifati: WEB-DL 720p
Video format: AVI
Video: MPEG4 960x480 23.976fps 1700kbps
Audio: MP3 48000Hz stereo 128kbps O'zbek tilida-

Media Info

General
Complete name : D:\Films\Tarjima\HD Video\Creed.2.2018.720p.WEB-DL.AxeL.avi
Format : AVI
Format/Info : Audio Video Interleave
Format profile : OpenDML
File size : 1.67 GiB
Duration : 2h 10mn
Overall bit rate : 1 842 Kbps
Movie name : CMRG
Writing application : Lavf54.63.104
Video
ID : 0
Format : MPEG-4 Visual
Format profile : Simple@L1
Format settings, BVOP : No
Format settings, QPel : No
Format settings, GMC : No warppoints
Format settings, Matrix : Default (H.263)
Codec ID : FMP4
Duration : 2h 10mn
Bit rate : 1 700 Kbps
Width : 960 pixels
Height : 480 pixels
Display aspect ratio : 2.000
Frame rate : 23.976 fps
Color space : YUV
Chroma subsampling : 4:2:0
Bit depth : 8 bits
Scan type : Progressive
Compression mode : Lossy
Bits/(Pixel*Frame) : 0.154
Stream size : 1.54 GiB (92%)
Writing library : Lavc54.92.100
Audio
ID : 1
Format : MPEG Audio
Format version : Version 1
Format profile : Layer 3
Mode : Joint stereo
Mode extension : MS Stereo
Codec ID : 55
Codec ID/Hint : MP3
Duration : 2h 10mn
Bit rate mode : Constant
Bit rate : 128 Kbps
Channel(s) : 2 channels
Sampling rate : 48.0 KHz
Compression mode : Lossy
Stream size : 119 MiB (7%)
Alignment : Aligned on interleaves
Interleave, duration : 24 ms (0.58 video frame)
Writing library : LAME3.99.5
.torrent yuklash

Yuqori tezlikda va bepul ko‘chirish!

Qanday yuklab olinadi? · Torrent nima o‘zi? · Reyting va cheklovlar



So‘ngi marta tahrirlandi: AxeL (2019-03-26 22:12), Jami tahrirlangan 3 marta
Profil ShX

Spicger

Jins:
Yigit
Staj:
8 oy 18 kun
Xabarlar:
59

Qayerdan: Chinoz

Taqiq:

Oltin, oltin, oltin :)))

Mavzu yaratish 22-Fev-2019 02:25 (48 daqiqa o‘tgach)

Iqitibos

Profil ShX

behaking

Jins:
Yigit
Staj:
10 oy 30 kun
Xabarlar:
7
Taqiq:

шуни кам мблигини хам ташанг

Mavzu yaratish 22-Fev-2019 13:26 (11 soat o‘tgach)

Iqitibos

Profil ShX

AxeL ®

Jins:
Yigit
Staj:
1 yil 2 oy
Xabarlar:
740

Qayerdan: Gronland, Norway

Taqiq:

Diqqat!!! Hajmi kichraytirilgan holda qayta taqdim etildi. Torrent file yangilandi, boshqatdan ko'chirib olishingiz mumkin! So'rovnomada qatnashish esdan chiqmasin!

Mavzu yaratish 22-Fev-2019 20:27 (7 soat o‘tgach)

Iqitibos

Profil ShX

Gr@nd

Jins:
Yigit
Staj:
1 yil 8 oy
Xabarlar:
166

Qayerdan: Jizzax Forish

Taqiq:

Hurmatli Foydalanuvchilar Reliz qildingizmi qochib yurmasdan tarqating

Mavzu yaratish 25-Fev-2019 08:14 (2 kun 11 soat o‘tgach)

Iqitibos

Profil ShX

AxeL ®

Jins:
Yigit
Staj:
1 yil 2 oy
Xabarlar:
740

Qayerdan: Gronland, Norway

Taqiq:

7705Hurmatli Foydalanuvchilar Reliz qildingizmi qochib yurmasdan tarqating
tushunmadim, men qochib yuribmanmi? Alovuddinning yangi sarguzashtlari 2 mana bu relizni 4 kun ichida atigi 2 ta odam ko'chiroldi, sabrlariga qoyilman, bu yerda esa besabr siz ekansiz, adsl modemning tarqatish tezligi 60 kb/s dan oshmaydi, hudoga shukr qilib tarqatyapmizku, bundan tashqari boshqa relizlarniyam tarqatyapmiz umumiy hisobda otdacha tezligi tushib ketadi, ustiga ustak relizni ko'chirib olib qochib ketganlaram bo'ldi, g'ing degan ovoz chiqarmadikku, omadingizni bersin...

Mavzu yaratish 25-Fev-2019 09:19 (1 soat 4 daqiqa o‘tgach)

Iqitibos

Profil ShX

Soft-Release

Jins:
Yigit
Staj:
1 yil 3 oy
Xabarlar:
775

Qayerdan: Kattakurgan

Taqiq:

7705Hurmatli Foydalanuvchilar Reliz qildingizmi qochib yurmasdan tarqating
Gr@nd, Assalom Aleykum Xusan Aka Xayrli Kun! Sabrli Bo'ling Sabr Qilsangiz Yutasiz Hammasi Sabr Bilan Bo'ladi! Eskilardan Qolgan Maqolni Bilasizku Sabrning Tagi Sariq Oltin!


So‘ngi marta tahrirlandi: Soft-Release (2019-02-25 14:46), Jami tahrirlangan 1 marta

Mavzu yaratish 25-Fev-2019 14:42 (5 soat o‘tgach)

Iqitibos

Profil ShX

Soft-Release

Jins:
Yigit
Staj:
1 yil 3 oy
Xabarlar:
775

Qayerdan: Kattakurgan

Taqiq:

7706
7705Hurmatli Foydalanuvchilar Reliz qildingizmi qochib yurmasdan tarqating
tushunmadim, men qochib yuribmanmi? Alovuddinning yangi sarguzashtlari 2 mana bu relizni 4 kun ichida atigi 2 ta odam ko'chiroldi, sabrlariga qoyilman, bu yerda esa besabr siz ekansiz, adsl modemning tarqatish tezligi 60 kb/s dan oshmaydi, hudoga shukr qilib tarqatyapmizku, bundan tashqari boshqa relizlarniyam tarqatyapmiz umumiy hisobda otdacha tezligi tushib ketadi, ustiga ustak relizni ko'chirib olib qochib ketganlaram bo'ldi, g'ing degan ovoz chiqarmadikku, omadingizni bersin...
AxeL, Hay-Hay-Hay Do'stim Asabni Saqlang Sog'liqqa Ziyon ag Bir Nechta Reliz Qilsangiz Do'stim Hammasini Bitta Bitta Tarqating 60 kb/s Bilan Shunda Hamma Ishlariz +5 Bo'ladi Foydalanuvchilar va Moderatorlar Orasida Kelishmovchiliklar Kelib Chiqmaydi! Yoki Kuniga Bittadan Reliz Qiling Bu Ham Ancha Yaxshi Taklif Manimcha

Mavzu yaratish 25-Fev-2019 14:45 (3 daqiqa o‘tgach)

Iqitibos

Profil ShX
Xabarlarni ko‘rsatish:    

Hozirgi vaqt: 17-Iyun 17:57

Vaqtlar farqi: UTC + 5



Siz mavzu yaratishingiz mumkin emas
Siz xabarlarga javob qaytarishingiz mumkin emas
Siz o‘z xabarlaringizni tahrirlashingiz mumkin emas
Siz o‘z xabarlaringizni o‘chirishingiz mumkin emas
Siz so‘rovlarda ovoz berishingiz mumkin emas
Siz xabalarga fayllarni biriktirishingiz mumkin emas
Siz fayllarni ko‘chirishingiz mumkin emas