˂
˃
Tarqatmalar statistikasi
Ko‘chirmoqdaman: [ 2 ]
Ko‘chirib bo‘ldim: [ 2 ]
 
     
 
 

mrthe_best ®

Jins:
Ko‘rsatilmagan
Staj:
4 oy 29 kun
Xabarlar:
13
Taqiq:

Chumoli odam va Ari | Человек-муравей и Оса
Chiqqan yili:2018
Davlat: Indoneziya
Janr: Fantastika
Davomiyligi: 01:58:32
Tarjima: Professional (dublyaj qilingan)
Rejissyor: Peyton Rid
::::::::::::::::::::::::::::::::::::::::::::::::::::::::::::::::::::::::::::::::::::::::::::::::::::::::::::::::::::::::
Rollarda: Pol Radd , Maykl Duglas , Evandje lilli
::::::::::::::::::::::::::::::::::::::::::::::::::::::::::::::::::::::::::::::::::::::::::::::::::::::::::::::::::::::::
Tavsif: "Ant-Man" deb nomlanuvchi Skot Lang, "Avengers" guruhida bo'lish huquqini allaqachon qo'lga kiritgan, biroq o'zining qizi bilan yaqin bo'lish istagi uni San-Fransiskoda saqlab turadi - doktor Xank Pym hayron qolarkan, Scottni yangi, xavfli missiyaga qo'shilishni talab qilmaydi. "Man-Ant" ning hiyla-nayrang dushmani bilan to'qnashuvga yordam berish yangi hamkor - "Vassp" bo'ladi.
::::::::::::::::::::::::::::::::::::::::::::::::::::::::::::::::::::::::::::::::::::::::::::::::::::::::::::::::::::::::
Videoning sifati: WEB-DL
Video format: MP4
Video: MPEG4 Video (H264) 852x356 (160:67) 24fps 958kbps [V: h264 high L3.0, yuv420p, 852x356, 9
Audio: AAC 44100Hz stereo 128kbps [A: SoundHandler (aac lc, 44100 Hz, stereo, 128 kb/s)]
Subtitrlar: O'zbek tilli

Media Info

General
Complete name : F:\Vedio\kino\Qasoskorlar\Marvel O'zbek Tilida\Chumoli odam\Chumoli odam va ari o'zbek tilida 2018.MP4
Format : MPEG-4
Format profile : Base Media
Codec ID : isom (isom/iso2/avc1/mp41)
File size : 920 MiB
Duration : 1 h 58 min
Overall bit rate : 1 085 kb/s
Video
ID : 1
Format : AVC
Format/Info : Advanced Video Codec
Format profile : High@L3
Format settings, CABAC : Yes
Format settings, RefFrames : 4 frames
Codec ID : avc1
Codec ID/Info : Advanced Video Coding
Duration : 1 h 58 min
Duration_FirstFrame : 46 ms
Bit rate : 960 kb/s
Width : 852 pixels
Height : 356 pixels
Display aspect ratio : 2.40:1
Frame rate mode : Constant
Frame rate : 24.000 FPS
Color space : YUV
Chroma subsampling : 4:2:0
Bit depth : 8 bits
Scan type : Progressive
Bits/(Pixel*Frame) : 0.132
Stream size : 810 MiB (88%)
Writing library : x264 core 152 r2851 ba24899
Encoding settings : cabac=1 / ref=4 / deblock=1:2:2 / analyse=0x3:0x113 / me=hex / subme=2 / psy=1 / psy_rd=1.00:0.00 / mixed_ref=1 / me_range=16 / chroma_me=1 / trellis=0 / 8x8dct=1 / cqm=0 / deadzone=21,11 / fast_pskip=1 / chroma_qp_offset=0 / threads=11 / lookahead_threads=2 / sliced_threads=0 / nr=0 / decimate=1 / interlaced=0 / bluray_compat=0 / constrained_intra=0 / bframes=0 / weightp=2 / keyint=72 / keyint_min=7 / scenecut=0 / intra_refresh=0 / rc_lookahead=40 / rc=abr / mbtree=1 / bitrate=960 / ratetol=1.0 / qcomp=0.60 / qpmin=10 / qpmax=51 / qpstep=4 / ip_ratio=0.91 / aq=1:1.00
Tagged date : UTC 2018-11-02 06:20:18
Audio
ID : 2
Format : AAC
Format/Info : Advanced Audio Codec
Format profile : LC
Codec ID : 40
Duration : 1 h 58 min
Bit rate mode : Constant
Bit rate : 128 kb/s
Channel(s) : 2 channels
Channel positions : Front: L R
Sampling rate : 44.1 kHz
Frame rate : 43.066 FPS (1024 SPF)
Compression mode : Lossy
Stream size : 109 MiB (12%)
Default : Yes
Alternate group : 1
Tagged date : UTC 2018-11-02 06:20:18

Lavhalar



.torrent yuklash

Yuqori tezlikda va bepul ko‘chirish!

Qanday yuklab olinadi? · Torrent nima o‘zi? · Reyting va cheklovlar

Profil ShX

Topik 2019 yil kinofilmlari (Premyeralar) forumidan Vaqtincha tarqatmalar ga ko‘chirildi
AxeL

Mavzu yaratish 23-Fev-2019 09:40 (1 kun 7 soat o‘tgach)

Xabarlarni ko‘rsatish:    

Hozirgi vaqt: 27-Iyun 09:53

Vaqtlar farqi: UTC + 5



Siz mavzu yaratishingiz mumkin emas
Siz xabarlarga javob qaytarishingiz mumkin emas
Siz o‘z xabarlaringizni tahrirlashingiz mumkin emas
Siz o‘z xabarlaringizni o‘chirishingiz mumkin emas
Siz so‘rovlarda ovoz berishingiz mumkin emas
Siz xabalarga fayllarni biriktirishingiz mumkin emas
Siz fayllarni ko‘chirishingiz mumkin emas