˂
˃
Tarqatmalar statistikasi
Ko‘chirmoqdaman: [ 2 ]
Ko‘chirib bo‘ldim: [ 9 ]
 
     
 
 

mrthe_best ®

Jins:
Ko‘rsatilmagan
Staj:
4 oy 29 kun
Xabarlar:
13
Taqiq:

::::::::::::::::::::::::::::::::::::::::::::::::::::::::::::::::::::::::::::::::::::::::::::::::::::::::::::::::::::::::
[img] [/img]
::::::::::::::::::::::::::::::::::::::::::::::::::::::::::::::::::::::::::::::::::::::::::::::::::::::::::::::::::::::::
::::::::::::::::::::::::::::::::::::::::::::::::::::::::::::::::::::::::::::::::::::::::::::::::::::::::::::::::::::::::
Hayot Mamot | Выживший
::::::::::::::::::::::::::::::::::::::::::::::::::::::::::::::::::::::::::::::::::::::::::::::::::::::::::::::::::::::::
Chiqqan yili: 2015
Davlat: Amerika
Janr: Drama
Davomiyligi: 02:36:53
Tarjima: Professional (dublyaj qilingan)
Rejissyor: Алехандро Гонсалес Иньярриту
Rollarda: Леонардо Ди Каприо , Том Харди , Уилл Поултер , Донал Глисон , Форрест Гудлак
Tavsif: Hunter Hugh Glass Amerika yirtqich g'arbining kashf qilinmagan joylarida jiddiy jarohat olgan. Yangi erlarni bosib olgan Jon Fitsjeraldning buyrug'iga ko'ra Hugh Yo'ldosh uni xiyonat bilan yolg'iz qoldiradi. Endi Shisha faqat bitta qurol qoldirdi - uning irodasi. U ibtidoiy tabiatga, qattiq qish va hindlarning dushman qabilalariga e'tiroz bildirishga tayyor, faqat Fitzgerald uchun omon qolish va qasos olish uchun.
7.813 199 725
IMDb: 8.00 (561 549)
ожидание: 97% (61 648)

Qo'sh. ma'lumot: Eng yaxshi film uchun Oskar mukofoti sovrindori
Videoning sifati: WEBRip
Video format: MP4
Video: MPEG4 Video (H264) 1280x720 30fps 1799kbps [V: English [eng] (h264 high L3.1, yuv420p, 128
Audio: AAC 44100Hz stereo 128kbps [A: SoundHandler [eng] (aac lc, 44100 Hz, stereo, 128 kb/s)]
Subtitrlar: O'zbek tili

Media Info

General
Complete name : F:\Vedio\kino\Tarjima\Hayot Mamot.MP4
Format : MPEG-4
Format profile : Base Media
Codec ID : isom (isom/iso2/avc1/mp41)
File size : 2.12 GiB
Duration : 2 h 36 min
Overall bit rate : 1 936 kb/s
Writing application : Lavf56.40.101
Video
ID : 1
Format : AVC
Format/Info : Advanced Video Codec
Format profile : High@L3.1
Format settings, CABAC : Yes
Format settings, RefFrames : 3 frames
Codec ID : avc1
Codec ID/Info : Advanced Video Coding
Duration : 2 h 36 min
Bit rate : 1 800 kb/s
Width : 1 280 pixels
Height : 720 pixels
Display aspect ratio : 16:9
Frame rate mode : Constant
Frame rate : 30.000 FPS
Color space : YUV
Chroma subsampling : 4:2:0
Bit depth : 8 bits
Scan type : Progressive
Bits/(Pixel*Frame) : 0.065
Stream size : 1.97 GiB (93%)
Writing library : x264 core 148
Encoding settings : cabac=1 / ref=3 / deblock=1:0:0 / analyse=0x3:0x113 / me=hex / subme=7 / psy=1 / psy_rd=1.00:0.00 / mixed_ref=1 / me_range=16 / chroma_me=0 / trellis=1 / 8x8dct=1 / cqm=0 / deadzone=21,11 / fast_pskip=1 / chroma_qp_offset=-2 / threads=22 / lookahead_threads=3 / sliced_threads=0 / nr=0 / decimate=1 / interlaced=0 / bluray_compat=0 / constrained_intra=0 / bframes=3 / b_pyramid=1 / b_adapt=1 / b_bias=0 / direct=1 / weightb=1 / open_gop=0 / weightp=2 / keyint=250 / keyint_min=25 / scenecut=40 / intra_refresh=0 / rc_lookahead=40 / rc=2pass / mbtree=1 / bitrate=1800 / ratetol=1.0 / qcomp=0.60 / qpmin=0 / qpmax=69 / qpstep=4 / cplxblur=20.0 / qblur=0.5 / ip_ratio=1.41 / aq=1:1.00
Language : English
Audio
ID : 2
Format : AAC
Format/Info : Advanced Audio Codec
Format profile : LC
Codec ID : 40
Duration : 2 h 36 min
Bit rate mode : Constant
Bit rate : 128 kb/s
Channel(s) : 2 channels
Channel positions : Front: L R
Sampling rate : 44.1 kHz
Frame rate : 43.066 FPS (1024 SPF)
Compression mode : Lossy
Stream size : 144 MiB (7%)
Language : English
Default : Yes
Alternate group : 1

Lavhalar

.torrent yuklash

Yuqori tezlikda va bepul ko‘chirish!

Qanday yuklab olinadi? · Torrent nima o‘zi? · Reyting va cheklovlar

Profil ShX

Topik Xorij filmlari (iTunes) forumidan Vaqtincha tarqatmalar ga ko‘chirildi
AxeL

Mavzu yaratish 23-Fev-2019 09:41 (7 soat o‘tgach)

Xabarlarni ko‘rsatish:    

Hozirgi vaqt: 27-Iyun 08:55

Vaqtlar farqi: UTC + 5



Siz mavzu yaratishingiz mumkin emas
Siz xabarlarga javob qaytarishingiz mumkin emas
Siz o‘z xabarlaringizni tahrirlashingiz mumkin emas
Siz o‘z xabarlaringizni o‘chirishingiz mumkin emas
Siz so‘rovlarda ovoz berishingiz mumkin emas
Siz xabalarga fayllarni biriktirishingiz mumkin emas
Siz fayllarni ko‘chirishingiz mumkin emas