˂
˃
Tarqatmalar statistikasi
Ko‘chiraman: [ 1 ]
Ko‘chirmoqdaman: [ 6 ]
Ko‘chirib bo‘ldim: [ 32 ]
 
     
 
 

AxeL ®

Jins:
Yigit
Staj:
1 yil 2 oy
Xabarlar:
740

Qayerdan: Gronland, Norway

Taqiq:

Rembo: Birinchi qon / Рэмбо: Первая кровь / Rambo: First Blood - Chiqqan yili: 1982
Davlat: AQSh
Janr: jangari, triller
Davomiyligi: 01:33:12
Tarjima: Havaskor (bir ovozli) o'zbek tilida-Rejissyor: Ted Kotcheff
Rollarda: Silvestr Stallone, Richard Krenna, Brayan Dennexi, Bil Makkini, Jek Starret, Maykl Telbot, Kris Makli, Jon MakLayem,...-Tavsif:Он - эксперт. Эксперт по оружию, ножам и собственному телу. Он человек, специально обученный не замечать боль и погодные условия. Он обучен быть неприхотливым, питаться такими вещами, которые заставят козла блевать. Во Вьетнаме его задание было уничтожать вражеский личный состав. Много убивать. Истощать силы врага до полной победы. Рэмбо был лучший. На войне он был героем, а на родине, во имя которой проливалась кровь, он никому не нужен. Неспособный адаптироваться к мирной жизни Рэмбо путешествует автостопом по городам Америки, встречаясь с однополчанами. Путешествие прекращает провинциальный шериф, ненавидящий бродяг. Попавший в тюрьму по ложному обвинению, вкусивший унижения со стороны администрации, Рэмбо объявляет войну, войну существующему отношению к ветеранам, беспределу официальных структур и главе местной полиции лично. Совершив фантастический побег из тюрьмы, Джон начинает партизанскую войну в местных лесах. Очень скоро ситуация выходит из-под контроля властей и в маленький город вводят части регулярной армии. Бывший боевой командир Джона Рэмбо смог дать лишь один совет: "Раз ты привел сюда так много людей, то приготовь побольше мешков для трупов"...--Videoning sifati: BDRip 720p
Video format: MKV
Video: MPEG4 Video (H264) 1280x544 23.976fps 2 113 Kbps
Audio #1: AAC 48000Hz 6ch 264 Kbps Rus tilida (Gavrilov)
Audio#2: AAC 48000Hz 6ch 251 Kbps Ingliz tilida
Audio#3: MP3 44100Hz stereo 192kbps O'zbek tilida-

Media Info

General
Unique ID : 94876393002588877523173649407197202881 (0x476087544A3F419DF3EF5A15BEDE49C1)
Format : Matroska
Format version : Version 4 / Version 2
File size : 1.84 GiB
Duration : 1h 33mn
Overall bit rate : 2 824 Kbps
Encoded date : UTC 2019-02-24 19:29:37
Writing application : mkvmerge v22.0.0 ('At The End Of The World') 64-bit
Writing library : libebml v1.3.5 + libmatroska v1.4.8
Video
ID : 1
Format : AVC
Format/Info : Advanced Video Codec
Format profile : High@L4
Format settings, CABAC : Yes
Format settings, ReFrames : 11 frames
Codec ID : V_MPEG4/ISO/AVC
Duration : 1h 33mn
Bit rate : 2 113 Kbps
Width : 1 280 pixels
Height : 544 pixels
Display aspect ratio : 2.35:1
Frame rate mode : Constant
Frame rate : 23.976 fps
Color space : YUV
Chroma subsampling : 4:2:0
Bit depth : 8 bits
Scan type : Progressive
Bits/(Pixel*Frame) : 0.127
Stream size : 1.37 GiB (75%)
Title : AVC; 1280x544 (2.35); 2025 Kbps; 23,976 fps; 0,121 bpp
Writing library : x264 core 67 r1145 d2e1e1c
Encoding settings : cabac=1 / ref=11 / deblock=1:-2:0 / analyse=0x3:0x113 / me=umh / subme=9 / psy_rd=1.1:0.0 / mixed_ref=1 / me_range=32 / chroma_me=1 / trellis=2 / 8x8dct=1 / cqm=0 / deadzone=21,11 / chroma_qp_offset=-2 / threads=6 / nr=0 / decimate=1 / mbaff=0 / bframes=8 / b_pyramid=1 / b_adapt=2 / b_bias=0 / direct=1 / wpredb=1 / keyint=250 / keyint_min=25 / scenecut=45 / rc=crf / crf=22.5 / qcomp=0.60 / qpmin=10 / qpmax=51 / qpstep=4 / ip_ratio=1.40 / pb_ratio=1.30 / aq=1:1.00
Language : English
Default : Yes
Forced : No
Color range : Limited
Matrix coefficients : BT.709
Audio #1
ID : 2
Format : AAC
Format/Info : Advanced Audio Codec
Format profile : LC
Codec ID : A_AAC
Duration : 1h 33mn
Bit rate : 265 Kbps
Channel(s) : 6 channels
Channel positions : Front: L C R, Side: L R, LFE
Sampling rate : 48.0 KHz
Frame rate : 46.875 fps (1024 spf)
Compression mode : Lossy
Stream size : 176 MiB (9%)
Title : AAC LC; 264 Kbps; VBR; 6 ch; 16 bit; Гаврилов
Language : Russian
Default : No
Forced : No
Audio #2
ID : 3
Format : AAC
Format/Info : Advanced Audio Codec
Format profile : LC
Codec ID : A_AAC
Duration : 1h 33mn
Bit rate : 252 Kbps
Channel(s) : 6 channels
Channel positions : Front: L C R, Side: L R, LFE
Sampling rate : 48.0 KHz
Frame rate : 46.875 fps (1024 spf)
Compression mode : Lossy
Stream size : 168 MiB (9%)
Title : AAC LC; 251 Kbps; VBR; 6 ch; 16 bit; Original
Language : English
Default : No
Forced : No
Audio #3
ID : 6
Format : MPEG Audio
Format version : Version 1
Format profile : Layer 3
Mode : Joint stereo
Mode extension : MS Stereo
Codec ID : A_MPEG/L3
Codec ID/Hint : MP3
Duration : 1h 33mn
Bit rate mode : Constant
Bit rate : 192 Kbps
Channel(s) : 2 channels
Sampling rate : 44.1 KHz
Frame rate : 38.281 fps (1152 spf)
Compression mode : Lossy
Stream size : 128 MiB (7%)
Title : O'zbek tilida (DUB) AxeL
Writing library : LAME3.97
Language : Uzbek
Default : Yes
Forced : No
Text #1
ID : 4
Format : UTF-8
Codec ID : S_TEXT/UTF8
Codec ID/Info : UTF-8 Plain Text
Duration : 1h 26mn
Bit rate : 72 bps
Count of elements : 914
Stream size : 45.9 KiB (0%)
Language : Russian
Default : No
Forced : No
Text #2
ID : 5
Format : UTF-8
Codec ID : S_TEXT/UTF8
Codec ID/Info : UTF-8 Plain Text
Duration : 1h 30mn
Bit rate : 32 bps
Count of elements : 609
Stream size : 21.4 KiB (0%)
Language : English
Default : No
Forced : No
-
.torrent yuklash

Yuqori tezlikda va bepul ko‘chirish!

Qanday yuklab olinadi? · Torrent nima o‘zi? · Reyting va cheklovlar

Profil ShX
Xabarlarni ko‘rsatish:    

Hozirgi vaqt: 17-Iyun 02:01

Vaqtlar farqi: UTC + 5



Siz mavzu yaratishingiz mumkin emas
Siz xabarlarga javob qaytarishingiz mumkin emas
Siz o‘z xabarlaringizni tahrirlashingiz mumkin emas
Siz o‘z xabarlaringizni o‘chirishingiz mumkin emas
Siz so‘rovlarda ovoz berishingiz mumkin emas
Siz xabalarga fayllarni biriktirishingiz mumkin emas
Siz fayllarni ko‘chirishingiz mumkin emas