˂
˃
 

N.U.R.I.K.B.E.K ®

Jins:
Yigit
Staj:
1 yil 7 oy
Xabarlar:
481

Qayerdan: Jizzax. Paxtakor

Taqiq:

- --So'ngi Marra | Последний Pубеж | Homefront--Chiqqan yili: 2013
Davlat: AQSH
Janr: Jangari
Davomiyligi: 01:40:35
Tarjima: Professional Kinoteatr O'zbek Tilida
Tarjima 2: Professional Rus Tili--Rejissyor: Geri Fleder--Rollarda: Djeyson Steytem, Djeyms Franko, Vaynona Rayder, Keyt Bosvort, Rashel Lefevr, Frenk Grillo, Klensi Braun, Izabela Vidovich, Steffi Grout, Krista Kempbell--Tavsif:
Fil Broker - narkotiklarga qarshi kurash bo'limining sobiq agenti. Fil o'tmishini unutish istagida, oilasi bilan kichik shaharga ko'chib keladi. Biroq u shahar faqat chetdangina tinch va osoishta ko'rinishini bilib qoladi, aslida shahar zo'ravonlik, narkotikka to'la, hammasini esa Alligator laqabli yovuz boshqaradi.-Qo'sh. ma'lumot:
Сценарий : Сильвестр Сталлоне, Чак Логан
Продюсер: Боаз Дэвидсон, Марк Гилл, Ави Лернер
Оператор: Тео ван де Санде
Композитор: Марк Айшем
Художник: Грег Берри, А. Тодд Холлэнд, Келли Джонс
Монтаж: Падрейк МакКинли
Бюджет: $22 000 000
Сборы в США: $20 158 898
Сборы в мире: + $11 200 000 = $31 358 898
Сборы в России: $2 694 446--Videoning sifati: BDRip
Video format: MKV--Video: Xvid 720x304 23.976fps 1 605 kb/s
Audio: MP3 48000Hz stereo 128kbps O'zbek Tili
Audio 2: Dolby AC3 48000Hz 6ch 448kbps Rus Tili--

Media Info

General
Format : Matroska
Format version : Version 4 / Version 2
File size : 1.53 GiB
Duration : 1 h 40 min
Overall bit rate : 2 182 kb/s
Encoded date : UTC 2019-02-27 12:13:43
Writing application : mkvmerge v15.0.0 ('Duel with the Devil') 64-bit
Writing library : libebml v1.3.5 + libmatroska v1.4.5
Video
ID : 1
Format : MPEG-4 Visual
Format profile : Advanced Simple@L5
Format settings, BVOP : 1
Format settings, QPel : No
Format settings, GMC : No warppoints
Format settings, Matrix : Custom
Codec ID : V_MS/VFW/FOURCC / XVID
Codec ID/Hint : XviD
Duration : 1 h 40 min
Bit rate : 1 605 kb/s
Width : 720 pixels
Height : 304 pixels
Display aspect ratio : 2.35:1
Frame rate mode : Constant
Frame rate : 23.976 (23976/1000) FPS
Color space : YUV
Chroma subsampling : 4:2:0
Bit depth : 8 bits
Scan type : Progressive
Compression mode : Lossy
Bits/(Pixel*Frame) : 0.306
Stream size : 1.13 GiB (74%)
Writing library : XviD 65
Default : Yes
Forced : No
Audio #1
ID : 2
Format : MPEG Audio
Format version : Version 1
Format profile : Layer 3
Mode : Joint stereo
Mode extension : MS Stereo
Codec ID : A_MPEG/L3
Codec ID/Hint : MP3
Duration : 1 h 40 min
Bit rate mode : Constant
Bit rate : 128 kb/s
Channel(s) : 2 channels
Sampling rate : 48.0 kHz
Frame rate : 41.667 FPS (1152 SPF)
Compression mode : Lossy
Stream size : 92.1 MiB (6%)
Title : O'zbek Tili
Writing library : LAME3.99.5
Language : Uzbek
Default : Yes
Forced : No
Audio #2
ID : 3
Format : AC-3
Format/Info : Audio Coding 3
Format settings, Endianness : Big
Codec ID : A_AC3
Duration : 1 h 40 min
Bit rate mode : Constant
Bit rate : 448 kb/s
Channel(s) : 6 channels
Channel positions : Front: L C R, Side: L R, LFE
Sampling rate : 48.0 kHz
Frame rate : 31.250 FPS (1536 SPF)
Bit depth : 16 bits
Compression mode : Lossy
Stream size : 322 MiB (21%)
Title : Rus Tili
Language : Russian
Service kind : Complete Main
Default : No
Forced : No
LAVHALAR
.torrent yuklash

Yuqori tezlikda va bepul ko‘chirish!

Qanday yuklab olinadi? · Torrent nima o‘zi? · Reyting va cheklovlar

Profil ShX
Xabarlarni ko‘rsatish:    

Hozirgi vaqt: 27-Iyun 10:02

Vaqtlar farqi: UTC + 5



Siz mavzu yaratishingiz mumkin emas
Siz xabarlarga javob qaytarishingiz mumkin emas
Siz o‘z xabarlaringizni tahrirlashingiz mumkin emas
Siz o‘z xabarlaringizni o‘chirishingiz mumkin emas
Siz so‘rovlarda ovoz berishingiz mumkin emas
Siz xabalarga fayllarni biriktirishingiz mumkin emas
Siz fayllarni ko‘chirishingiz mumkin emas