˂
˃
 

JAMSHIDDIN85 ®

Jins:
Ko‘rsatilmagan
Staj:
1 yil
Xabarlar:
4
Taqiq:

MILLION JAMOASINING KONSERT DASTURI (oktyabr)
Chiqqan yili: 2018
Davlat: O`zbekiston
Janri: Komediya
Davomiyligi: 02:15:33
Rejissiyor: Davron Kabulov
Tavsif: Sizu bizga tanish bo'lgan Million jamoasining yangi tarkibdagi ikkinchi konsert chiqishi o'tgan yilning 22-31 oktyabrlarida qo'yilgan edi. Mana endi ushbu shovvozlarning chiqishlarini bizning trekerdan yuqori sifatda ko'chirib olish imkoni paydo bo'ldi. Marhamat konsert dasturni tomosha qiling va miriqib dam oling.
TEXNIK MA'LUMOTLAR:
Sifat: WEBRip 1080p
Format: MP4
Video: AVC, 1920x1080 29.97fps 3 189 kbps
Audio: AAC 44100Hz stereo 128 kbps

Media Info

General
Format : MPEG-4
Format profile : Base Media
Codec ID : isom (isom/iso2/avc1/mp41)
File size : 3.14 GiB
Duration : 2 h 15 min
Overall bit rate mode : Variable
Overall bit rate : 3 321 kb/s
Encoded date : UTC 2019-02-28 20:09:48
Tagged date : UTC 2019-02-28 20:09:48
Video
ID : 1
Format : AVC
Format/Info : Advanced Video Codec
Format profile : High@L4
Format settings : CABAC / 3 Ref Frames
Format settings, CABAC : Yes
Format settings, ReFrames : 3 frames
Codec ID : avc1
Codec ID/Info : Advanced Video Coding
Duration : 2 h 15 min
Bit rate : 3 189 kb/s
Width : 1 920 pixels
Height : 1 080 pixels
Display aspect ratio : 16:9
Frame rate mode : Constant
Frame rate : 29.970 (30000/1001) FPS
Color space : YUV
Chroma subsampling : 4:2:0
Bit depth : 8 bits
Scan type : Progressive
Bits/(Pixel*Frame) : 0.051
Stream size : 3.02 GiB (96%)
Title : ISO Media file produced by Google Inc. Created on: 02/28/2019.
Writing library : x264 core 155 r2901 7d0ff22
Encoded date : UTC 2019-02-28 20:09:48
Tagged date : UTC 2019-02-28 20:09:48
Color range : Limited
Color primaries : BT.709
Transfer characteristics : BT.709
Matrix coefficients : BT.709
Codec configuration box : avcC
Audio
ID : 2
Format : AAC LC
Format/Info : Advanced Audio Codec Low Complexity
Codec ID : mp4a-40-2
Duration : 2 h 15 min
Bit rate mode : Variable
Bit rate : 128 kb/s
Channel(s) : 2 channels
Channel layout : L R
Sampling rate : 44.1 kHz
Frame rate : 43.066 FPS (1024 SPF)
Compression mode : Lossy
Stream size : 124 MiB (4%)
Title : ISO Media file produced by Google Inc. Created on: 02/28/2019.
Default : Yes
Alternate group : 1
Encoded date : UTC 2019-02-28 19:32:18
Tagged date : UTC 2019-02-28 19:32:18
LAVHALAR
.torrent yuklash

Yuqori tezlikda va bepul ko‘chirish!

Qanday yuklab olinadi? · Torrent nima o‘zi? · Reyting va cheklovlar



So‘ngi marta tahrirlandi: JAMSHIDDIN85 (2019-03-02 10:37), Jami tahrirlangan 1 marta
Profil ShX

AxeL

Jins:
Yigit
Staj:
1 yil 2 oy
Xabarlar:
740

Qayerdan: Gronland, Norway

Taqiq:

tayyor shablonni ko'chiribsizda, o'zgartirish esdan chiqibdi, xatolari ko'p ekan...
1. Posterni kichraytiring.
2. Relizizni tex ma'lumotlarini texnik ma'lumotlardagidek qilib o'zgartirib chiqing.
3. Skrinlarni eskizga oling.
4. Media Infoni spoyler ostiga oling.

Mavzu yaratish 01-Mar-2019 21:30 (9 daqiqa o‘tgach)

Iqitibos

Profil ShX

MRLG

Jins:
Yigit
Staj:
1 yil 10 oy
Xabarlar:
603
Taqiq:

Ba'zi kamchiliklarni to'g'riladim. Faqat lavhalarni mana bu yerda yozilganidek qilib olish kerak: http://uztracker.me/viewtopic.php?t=197

Mavzu yaratish 02-Mar-2019 04:23 (6 soat o‘tgach)

Iqitibos

Profil ShX

JAMSHIDDIN85 ®

Jins:
Ko‘rsatilmagan
Staj:
1 yil
Xabarlar:
4
Taqiq:

FULL HD bo'lgani uchun bo'lsa kerak rasmni ko'rishi xam katta bo'lib ketgan
keyingilariga xarakat qilamiz/ to'g'grilashga.

Mavzu yaratish 02-Mar-2019 10:14 (5 soat o‘tgach)

Iqitibos

Profil ShX
Xabarlarni ko‘rsatish:    

Hozirgi vaqt: 17-Iyun 02:35

Vaqtlar farqi: UTC + 5



Siz mavzu yaratishingiz mumkin emas
Siz xabarlarga javob qaytarishingiz mumkin emas
Siz o‘z xabarlaringizni tahrirlashingiz mumkin emas
Siz o‘z xabarlaringizni o‘chirishingiz mumkin emas
Siz so‘rovlarda ovoz berishingiz mumkin emas
Siz xabalarga fayllarni biriktirishingiz mumkin emas
Siz fayllarni ko‘chirishingiz mumkin emas