˂
˃
Tarqatmalar statistikasi
Ko‘chirmoqdaman: [ 15 ]
Ko‘chirib bo‘ldim: [ 48 ]
 
     
 
 

AxeL ®

Jins:
Yigit
Staj:
1 yil 2 oy
Xabarlar:
740

Qayerdan: Gronland, Norway

Taqiq:

Tanklar / Танки- Chiqqan yili: 2018
Davlat: Rossiya
Janr: sarguzasht, tarixiy, jangari
Davomiyligi: 01:33:13
Tarjima: Professional (ko'p ovozli, Yoshlar kanali) o'zbek tilida-Rejissyor: Kim Drujinin / Ким Дружинин
Rollarda: Andrey Merzlikin, Aglaya Tarasova, Aleksandr Tyutin, Sergey Stukalov, Anton Filipenko, Aleksey Ovsyannikov, Sergey Chertvertkov, Nikolay Gorshkov,...-Tavsif: Fashistlarning Germaniya bilan urush arafasida muhandis Mixail Koshkin yangi T-34 tankini ishlab chiqdi. Jangovar vositaning noyobligini isbotlash uchun Koshkin va uning jamoasi Moskvada o'z tanklari bilan boradi. Biroq yaqinda qochish kutilmagan yugurishlarga aylanib boradi, u yerda yo'llar yovuzlikdan kamroq bo'ladi ... Bir qator xavfli sarguzashtlardan o'tib, yangi tanklarning mukammal texnik va jangovar fazilatlari tufayli qahramonlar T-34ning eng ustunligini isbotlaydilar.-Videoning sifati: WEB-DLRip
Video format: MKV
Video: Xvid 720x320 23.976fps 1 858 Kbps
Audio #1: Dolby AC3 48000Hz 6ch 384kbps Rus tilida
Audio #2: MP3 44100Hz stereo 192kbps O'zbek tilida-

Media Info

General
Unique ID : 18132434893502320544389250660393593104 (0xDA42E10102D24841219005B47D8A910)
Complete name : D:\Films\Tarjima\HD Video\tanklar.web-dlrip.2018.axel.mkv
Format : Matroska
Format version : Version 4 / Version 2
File size : 1.59 GiB
Duration : 1h 33mn
Overall bit rate : 2 436 Kbps
Encoded date : UTC 2019-03-06 05:35:43
Writing application : mkvmerge v22.0.0 ('At The End Of The World') 64-bit
Writing library : libebml v1.3.5 + libmatroska v1.4.8
Video
ID : 1
Format : MPEG-4 Visual
Format profile : Advanced Simple@L5
Format settings, BVOP : 1
Format settings, QPel : No
Format settings, GMC : No warppoints
Format settings, Matrix : Custom
Codec ID : V_MS/VFW/FOURCC / XVID
Codec ID/Hint : XviD
Duration : 1h 33mn
Bit rate : 1 858 Kbps
Width : 720 pixels
Height : 320 pixels
Display aspect ratio : 2.25:1
Frame rate mode : Constant
Frame rate : 23.976 (23976/1000) fps
Original frame rate : 23.976 (24000/1001) fps
Color space : YUV
Chroma subsampling : 4:2:0
Bit depth : 8 bits
Scan type : Progressive
Compression mode : Lossy
Bits/(Pixel*Frame) : 0.336
Stream size : 1.21 GiB (76%)
Writing library : XviD 73
Default : Yes
Forced : No
Audio #1
ID : 2
Format : AC-3
Format/Info : Audio Coding 3
Mode extension : CM (complete main)
Format settings, Endianness : Big
Codec ID : A_AC3
Duration : 1h 33mn
Bit rate mode : Constant
Bit rate : 384 Kbps
Channel(s) : 6 channels
Channel positions : Front: L C R, Side: L R, LFE
Sampling rate : 48.0 KHz
Frame rate : 31.250 fps (1536 spf)
Compression mode : Lossy
Stream size : 256 MiB (16%)
Title : Rus tilida
Language : Russian
Default : Yes
Forced : No
Audio #2
ID : 3
Format : MPEG Audio
Format version : Version 1
Format profile : Layer 3
Mode : Joint stereo
Mode extension : MS Stereo
Codec ID : A_MPEG/L3
Codec ID/Hint : MP3
Duration : 1h 33mn
Bit rate mode : Constant
Bit rate : 192 Kbps
Channel(s) : 2 channels
Sampling rate : 44.1 KHz
Frame rate : 38.281 fps (1152 spf)
Compression mode : Lossy
Stream size : 128 MiB (8%)
Title : O'zbek tilida (AxeL)
Writing library : LAME3.97
Language : Uzbek
Default : No
Forced : No
-
.torrent yuklash

Yuqori tezlikda va bepul ko‘chirish!

Qanday yuklab olinadi? · Torrent nima o‘zi? · Reyting va cheklovlar

Profil ShX
Xabarlarni ko‘rsatish:    

Hozirgi vaqt: 17-Iyun 18:13

Vaqtlar farqi: UTC + 5



Siz mavzu yaratishingiz mumkin emas
Siz xabarlarga javob qaytarishingiz mumkin emas
Siz o‘z xabarlaringizni tahrirlashingiz mumkin emas
Siz o‘z xabarlaringizni o‘chirishingiz mumkin emas
Siz so‘rovlarda ovoz berishingiz mumkin emas
Siz xabalarga fayllarni biriktirishingiz mumkin emas
Siz fayllarni ko‘chirishingiz mumkin emas