˂
˃
Tarqatmalar statistikasi
Ko‘chirmoqdaman: [ 9 ]
Ko‘chirib bo‘ldim: [ 50 ]
 
     
 
 

N.U.R.I.K.B.E.K ®

Jins:
Yigit
Staj:
1 yil 7 oy
Xabarlar:
476

Qayerdan: Jizzax. Paxtakor

Taqiq:

Sabr Kosasi | Жажда смерти | Death Wish
--Chiqqan yili: 2018
Davlat: AQSH
Janr: Jangari, Triller, Jinoyat.
Davomiyligi: 01:46:43
Tarjima 1: Professional Kinoteatr O'zbek Tilida
Tarjima 2: Professional Rus Tili--Rejissyor: Elay Rot.--Rollarda: Bryus Uillis, Vinsent D Onofrio, Elizabeth Shu, Camila Morrone, Dean Norris, Bo Napp, Kimberly Elis, Len Cariou, Jek Kesi, Ronnie Jan Blevins--Tavsif: Pol Kersey jarohatlardan so'ng odamlarni dunyodan sudrab chiqarish uchun foydalaniladigan jarroh. Ammo uning xotini va qizi ko'cha to'dasining qurboni bo'lishganidan so'ng, politsiya faol emas, qo'lida adolat qilichini oladi. Jinoyatchilarning ixtirochilik qobiliyatiga oid videolavhalari onlayn ustunlarni egallaydi va mish-mish shaharni yashovchilar orasida butun shaharga egalik qiluvchi mashhur avangard haqida tarqalmoqda. U qasosni, quvnoq va ta'mga ega.--Videoning sifati: BDRip HEVC 1080p
Video format: MKV--Video: HVC1 1920x800 23.976fps 1 653 kb/s
Audio: MP3 48000Hz stereo 128kbps O'zbek Tili
Audio 2: Dolby AC3 48000Hz 6ch 384kbps Rus Til--

Media Info

General
Format : Matroska
Format version : Version 4 / Version 2
File size : 1.62 GiB
Duration : 1 h 46 min
Overall bit rate : 2 167 kb/s
Movie name : Death Wish 2018 1080p BluRay x265 HEVC 6CH-MRN
Encoded date : UTC 2019-03-15 15:53:58
Writing application : mkvmerge v15.0.0 ('Duel with the Devil') 64-bit
Writing library : libebml v1.3.5 + libmatroska v1.4.5
Cover : Yes
Attachments : cover.jpg
Video
ID : 1
Format : HEVC
Format/Info : High Efficiency Video Coding
Format profile : Main@L4@Main
Codec ID : V_MPEGH/ISO/HEVC
Duration : 1 h 46 min
Bit rate : 1 653 kb/s
Width : 1 920 pixels
Height : 800 pixels
Display aspect ratio : 2.40:1
Frame rate mode : Constant
Frame rate : 23.976 (24000/1001) FPS
Color space : YUV
Chroma subsampling : 4:2:0
Bit depth : 8 bits
Bits/(Pixel*Frame) : 0.045
Stream size : 1.23 GiB (76%)
Default : Yes
Forced : No
Audio #1
ID : 2
Format : MPEG Audio
Format version : Version 1
Format profile : Layer 3
Mode : Joint stereo
Codec ID : A_MPEG/L3
Codec ID/Hint : MP3
Duration : 1 h 46 min
Bit rate mode : Constant
Bit rate : 128 kb/s
Channel(s) : 2 channels
Sampling rate : 48.0 kHz
Frame rate : 41.667 FPS (1152 SPF)
Compression mode : Lossy
Stream size : 97.7 MiB (6%)
Title : O'zbek Tili
Writing library : LAME3.99.5
Language : Uzbek
Default : Yes
Forced : No
Audio #2
ID : 3
Format : AC-3
Format/Info : Audio Coding 3
Format settings, Endianness : Big
Codec ID : A_AC3
Duration : 1 h 46 min
Bit rate mode : Constant
Bit rate : 384 kb/s
Channel(s) : 6 channels
Channel positions : Front: L C R, Side: L R, LFE
Sampling rate : 48.0 kHz
Frame rate : 31.250 FPS (1536 SPF)
Bit depth : 16 bits
Compression mode : Lossy
Stream size : 293 MiB (18%)
Title : Rus Tili
Language : Russian
Service kind : Complete Main
Default : No
Forced : No
LAVHALAR
.torrent yuklash

Yuqori tezlikda va bepul ko‘chirish!

Qanday yuklab olinadi? · Torrent nima o‘zi? · Reyting va cheklovlar

Profil ShX

dilshod6663

Jins:
Ko‘rsatilmagan
Staj:
1 yil 6 oy
Xabarlar:
78
Taqiq:

N.U.R.I.K.B.E.K juda zerikkandik reliz uchun raxmat. tezligi xam zur.

Mavzu yaratish 15-Mar-2019 22:09 (51 daqiqa o‘tgach)

Iqitibos

Profil ShX

N.U.R.I.K.B.E.K ®

Jins:
Yigit
Staj:
1 yil 7 oy
Xabarlar:
476

Qayerdan: Jizzax. Paxtakor

Taqiq:

7831 N.U.R.I.K.B.E.K juda zerikkandik reliz uchun raxmat. tezligi xam zur.
Xozr sekinlashib qoladi uploderga yetvoganizdan kegin ag

Mavzu yaratish 15-Mar-2019 22:11 (1 daqiqa o‘tgach)

Iqitibos

Profil ShX

dilshod6663

Jins:
Ko‘rsatilmagan
Staj:
1 yil 6 oy
Xabarlar:
78
Taqiq:

N.U.R.I.K.B.E.K vvvaaayyy vvaayyy vvvaayyy. quvonchim kupka chuzilmadi.

Mavzu yaratish 15-Mar-2019 22:32 (20 daqiqa o‘tgach)

Iqitibos

Profil ShX

Veng chun

Jins:
Ko‘rsatilmagan
Staj:
10 oy 19 kun
Xabarlar:
8
Taqiq:

Admin Uzbek mp3 lar ham albom qilb yuklang agar malol kelmasa

Mavzu yaratish 16-Mar-2019 10:05 (11 soat o‘tgach)

Iqitibos

Profil ShX
Xabarlarni ko‘rsatish:    

Hozirgi vaqt: 17-Iyun 18:00

Vaqtlar farqi: UTC + 5



Siz mavzu yaratishingiz mumkin emas
Siz xabarlarga javob qaytarishingiz mumkin emas
Siz o‘z xabarlaringizni tahrirlashingiz mumkin emas
Siz o‘z xabarlaringizni o‘chirishingiz mumkin emas
Siz so‘rovlarda ovoz berishingiz mumkin emas
Siz xabalarga fayllarni biriktirishingiz mumkin emas
Siz fayllarni ko‘chirishingiz mumkin emas