˂
˃
Tarqatmalar statistikasi
Ko‘chirmoqdaman: [ 1 ]
Ko‘chirib bo‘ldim: [ 2 ]
 
     
 
 

logan7272 ®

Jins:
Yigit
Staj:
1 yil 2 oy
Xabarlar:
73

Qayerdan: Namangan

Taqiq:

Bamblbi | Бамблби | Bumbleebee - -Chiqarilgan yil: 2018
Davlat: AQSH
Janr: Fantastika, Jangari, Sarguzasht
Davomiyligi: 01:54:21
Tarjima: Ingliz tlilda-Rejissyor: Trevis Nayt / Travis Knight-Rollarda: Dilan O'Brayn, Heyli Staynfeld, Jastin Teru, Jon Sina, Anjela Bassett, Pamela Adlon, Megin Prays, Grey DeLayl, Piter Kallen, Kennet Choy-Tavsif: 1987 yil Quvg'indan yashirish maqsadida Bumblebeeni Charli yashaydigan Kaliforniya shtatidagi avtomobillarni tashlab yuborgan. Yaqinda qiz 18 yoshda bo'ladi, hayotida o'z o'rnini topishga harakat qiladi. U singan va buzilgan Bambukbeeni duch keladi. Uni xayoliga keltirib, Charli darhol tushunadi: Charlie zumda uning yo'lida sariq Volkswagen oddiy emas edi tushunardi ...
- Format: MKV
Video: HEVC, 1280x720, ~ 1108 kbps, 23,976 fps
Audio: AAC LC-SBR;72 Kbps;2 ch
Subtitrlar: Inglizcha-

Media Info

General
Unique ID : 218122034339977337851019661398892843777 (0xA418C697544EFDEBC82B49AAD3D79301)
Complete name : Bumblebee.2018.720p.WEB-DL.2CH.x265.HEVC-PSA\Bumblebee.2018.720p.WEB-DL.2CH.x265.HEVC-PSA.mkv
Format : Matroska
Format version : Version 4 / Version 2
File size : 967 MiB
Duration : 1 h 54 min
Overall bit rate : 1 183 kb/s
Movie name : PSArips.com | Bumblebee.2018.720p.WEB-DL.2CH.x265.HEVC-PSA
Encoded date : UTC 2019-03-19 10:58:37
Writing application : mkvmerge v32.0.0 ('Astral Progressions') 64-bit
Writing library : libebml v1.3.7 + libmatroska v1.5.0
Video
ID : 1
Format : HEVC
Format/Info : High Efficiency Video Coding
Format profile : Main@L3.1@Main
Codec ID : V_MPEGH/ISO/HEVC
Duration : 1 h 54 min
Bit rate : 1 109 kb/s
Width : 1 280 pixels
Height : 720 pixels
Display aspect ratio : 16:9
Frame rate mode : Constant
Frame rate : 23.976 (24000/1001) FPS
Color space : YUV
Chroma subsampling : 4:2:0
Bit depth : 8 bits
Bits/(Pixel*Frame) : 0.050
Stream size : 907 MiB (94%)
Default : Yes
Forced : No
Audio
ID : 2
Format : AAC
Format/Info : Advanced Audio Codec
Format profile : HE-AAC / LC
Format settings : Explicit
Codec ID : A_AAC-2
Duration : 1 h 53 min
Bit rate : 72.0 kb/s
Channel(s) : 2 channels
Channel positions : Front: L R
Sampling rate : 48.0 kHz / 24.0 kHz
Frame rate : 23.438 FPS (1024 SPF)
Compression mode : Lossy
Delay relative to video : 23 ms
Stream size : 58.8 MiB (6%)
Language : English
Default : Yes
Forced : No
Text
ID : 3
Format : UTF-8
Codec ID : S_TEXT/UTF8
Codec ID/Info : UTF-8 Plain Text
Duration : 1 h 49 min
Bit rate : 45 b/s
Count of elements : 1271
Stream size : 36.3 KiB (0%)
Language : English
Default : Yes
Forced : No
.torrent yuklash

Yuqori tezlikda va bepul ko‘chirish!

Qanday yuklab olinadi? · Torrent nima o‘zi? · Reyting va cheklovlar



So‘ngi marta tahrirlandi: logan7272 (2019-03-20 19:41), Jami tahrirlangan 1 marta
Profil ShX

N.U.R.I.K.B.E.K

Jins:
Yigit
Staj:
1 yil 7 oy
Xabarlar:
476

Qayerdan: Jizzax. Paxtakor

Taqiq:

Media Info ni xam kiriting

Mavzu yaratish 20-Mar-2019 13:48 (49 daqiqa o‘tgach)

Iqitibos

Profil ShX

logan7272 ®

Jins:
Yigit
Staj:
1 yil 2 oy
Xabarlar:
73

Qayerdan: Namangan

Taqiq:

N.U.R.I.K.B.E.K, aytim nimadir esdan chiqdi

Mavzu yaratish 20-Mar-2019 19:42 (5 soat o‘tgach)

Iqitibos

Profil ShX

N.U.R.I.K.B.E.K

Jins:
Yigit
Staj:
1 yil 7 oy
Xabarlar:
476

Qayerdan: Jizzax. Paxtakor

Taqiq:

logan7272, bu kinoni konvert qildizmi

Mavzu yaratish 20-Mar-2019 19:48 (5 daqiqa o‘tgach)

Iqitibos

Profil ShX

N.U.R.I.K.B.E.K

Jins:
Yigit
Staj:
1 yil 7 oy
Xabarlar:
476

Qayerdan: Jizzax. Paxtakor

Taqiq:

logan7272, AAC LC-SBR;72 Kbps;2 ch
ovozi daxshatku konvert qiganda ovoziga tegmaslik kerak edi

Mavzu yaratish 20-Mar-2019 19:52 (4 daqiqa o‘tgach)

Iqitibos

Profil ShX

Soft-Release

Jins:
Yigit
Staj:
1 yil 3 oy
Xabarlar:
775

Qayerdan: Kattakurgan

Taqiq:

7851logan7272, AAC LC-SBR;72 Kbps;2 ch
ovozi daxshatku konvert qiganda ovoziga tegmaslik kerak edi
N.U.R.I.K.B.E.K, Originaliku Bu Manba Psarips Dan MediaInfo Ga Qarang HEVC PSA Yozilgan Tarjima: Ingliz tlilda

Mavzu yaratish 21-Mar-2019 00:47 (4 soat o‘tgach)

Iqitibos

Profil ShX

N.U.R.I.K.B.E.K

Jins:
Yigit
Staj:
1 yil 7 oy
Xabarlar:
476

Qayerdan: Jizzax. Paxtakor

Taqiq:

7852
7851logan7272, AAC LC-SBR;72 Kbps;2 ch
ovozi daxshatku konvert qiganda ovoziga tegmaslik kerak edi
N.U.R.I.K.B.E.K, Originaliku Bu Manba Psarips Dan MediaInfo Ga Qarang HEVC PSA Yozilgan Tarjima: Ingliz tlilda
ogan joyida konvert qilingandur unda

Mavzu yaratish 21-Mar-2019 01:02 (14 daqiqa o‘tgach)

Iqitibos

Profil ShX

logan7272 ®

Jins:
Yigit
Staj:
1 yil 2 oy
Xabarlar:
73

Qayerdan: Namangan

Taqiq:

N.U.R.I.K.B.E.K, zarubej treker

Mavzu yaratish 21-Mar-2019 06:22 (5 soat o‘tgach)

Iqitibos

Profil ShX
Xabarlarni ko‘rsatish:    

Hozirgi vaqt: 17-Iyun 02:03

Vaqtlar farqi: UTC + 5



Siz mavzu yaratishingiz mumkin emas
Siz xabarlarga javob qaytarishingiz mumkin emas
Siz o‘z xabarlaringizni tahrirlashingiz mumkin emas
Siz o‘z xabarlaringizni o‘chirishingiz mumkin emas
Siz so‘rovlarda ovoz berishingiz mumkin emas
Siz xabalarga fayllarni biriktirishingiz mumkin emas
Siz fayllarni ko‘chirishingiz mumkin emas