˂
˃
Tarqatmalar statistikasi
Ko‘chirmoqdaman: [ 5 ]
Ko‘chirib bo‘ldim: [ 34 ]
 
     
 
 

N.U.R.I.K.B.E.K ®

Jins:
Yigit
Staj:
1 yil 5 oy
Xabarlar:
459

Qayerdan: Jizzax. Paxtakor

Taqiq:

-Qora Libosli Odamlar 3 | Люди В Черном 3 | Men in Black 3
--Chiqqan yili: 2012
Davlat: AQSH
Janr: Fantastik, Jangari, Komediya.
Davomiyligi: 01:45:50
Tarjima 1 Audio Yo'lak: Professional Milliy O'zbek Tilida
Tarjima 2 Audio Yo'lak: Professional Rus Tili--Rejissyor: Barry Sonnenfeld.--Rollarda: Uill Smit, Josh Brolin, Tommy Lee Jones, Jemaine Kleman, Maykl Stulbarg, Emma Tompson, Alice Eve, Mayk Colter, Bill Hader, Maykl Chernus, Nicole Scherzinger, Devid Rush--Tavsif: Agent Jey tashqi qoralashni qaytarishga qodir bo'lgan himoya qiladigan galaktik qalqon yo'qligini biladi. Agent Kay uni qurmagan, chunki u 1969 yilda o'ldirilgan. Agent Jey Yer va uning sheriklarining hayotini saqlab qolish uchun vaqt topishi kerak.--Videoning sifati: HDRip 720p
Video format: MKV--Video: MPEG4 Video (H264) 1280x694 23.976fps 2 400 kb/s
Audio: MP3 48000Hz stereo 128kbps O'zbek Tili
Audio 2: AAC 48000Hz stereo Rus Til--

Media Info

General
Format : Matroska
Format version : Version 4 / Version 2
File size : 1.93 GiB
Duration : 1 h 45 min
Overall bit rate : 2 615 kb/s
Encoded date : UTC 2019-03-20 10:09:55
Writing application : mkvmerge v15.0.0 ('Duel with the Devil') 64-bit
Writing library : libebml v1.3.5 + libmatroska v1.4.5
Video
ID : 1
Format : AVC
Format/Info : Advanced Video Codec
Format profile : High@L4.1
Format settings, CABAC : Yes
Format settings, RefFrames : 4 frames
Codec ID : V_MPEG4/ISO/AVC
Duration : 1 h 45 min
Bit rate : 2 400 kb/s
Width : 1 280 pixels
Height : 694 pixels
Display aspect ratio : 1.85:1
Frame rate mode : Constant
Frame rate : 23.976 (24000/1001) FPS
Color space : YUV
Chroma subsampling : 4:2:0
Bit depth : 8 bits
Scan type : Progressive
Bits/(Pixel*Frame) : 0.113
Stream size : 1.74 GiB (90%)
Writing library : x264 core 146
Default : Yes
Forced : No
Audio #1
ID : 2
Format : MPEG Audio
Format version : Version 1
Format profile : Layer 3
Mode : Joint stereo
Mode extension : MS Stereo
Codec ID : A_MPEG/L3
Codec ID/Hint : MP3
Duration : 1 h 45 min
Bit rate mode : Constant
Bit rate : 128 kb/s
Channel(s) : 2 channels
Sampling rate : 48.0 kHz
Frame rate : 41.667 FPS (1152 SPF)
Compression mode : Lossy
Delay relative to video : -21 ms
Stream size : 96.9 MiB (5%)
Title : O'zbek Tili
Language : Uzbek
Default : Yes
Forced : No
Audio #2
ID : 3
Format : AAC
Format/Info : Advanced Audio Codec
Format profile : LC
Codec ID : A_AAC
Duration : 1 h 45 min
Bit rate : 128 kb/s
Channel(s) : 2 channels
Channel positions : Front: L R
Sampling rate : 48.0 kHz
Frame rate : 46.875 FPS (1024 SPF)
Compression mode : Lossy
Delay relative to video : -21 ms
Stream size : 96.9 MiB (5%)
Title : Rus Tili
Language : Russian
Default : No
Forced : No
LAVHALAR
.torrent yuklash

Yuqori tezlikda va bepul ko‘chirish!

Qanday yuklab olinadi? · Torrent nima o‘zi? · Reyting va cheklovlar



So‘ngi marta tahrirlandi: N.U.R.I.K.B.E.K (2019-03-21 15:34), Jami tahrirlangan 3 marta
Profil ShX

MRLG

Jins:
Yigit
Staj:
1 yil 8 oy
Xabarlar:
577
Taqiq:

Ko'zni toliqtirmaydigan shriftga almashtiring!

Mavzu yaratish 20-Mar-2019 17:15 (1 soat 18 daqiqa o‘tgach)

Iqitibos

Profil ShX
Xabarlarni ko‘rsatish:    

Hozirgi vaqt: 18-Apr 20:13

Vaqtlar farqi: UTC + 5



Siz mavzu yaratishingiz mumkin emas
Siz xabarlarga javob qaytarishingiz mumkin emas
Siz o‘z xabarlaringizni tahrirlashingiz mumkin emas
Siz o‘z xabarlaringizni o‘chirishingiz mumkin emas
Siz so‘rovlarda ovoz berishingiz mumkin emas
Siz xabalarga fayllarni biriktirishingiz mumkin emas
Siz fayllarni ko‘chirishingiz mumkin emas