˂
˃
Tarqatmalar statistikasi
Ko‘chirmoqdaman: [ 6 ]
Ko‘chirib bo‘ldim: [ 42 ]
 
     
 
 

MRLG ®

Jins:
Yigit
Staj:
1 yil 10 oy
Xabarlar:
603
Taqiq:

Sayyod / Ганмен / The Gunman- Chiqqan yili: 2015
Davlat: AQSH, Ispaniya, Buyuk Britaniya, Fransiya
Janr: jangari, triller, drama, kriminal, detektiv
Davomiylig: 01:55:40
Tarjima: Professional tarjima [Ko'p ovozli] O'zbek tilida
Tarjima #2:To'liq dublyaj [iTunes] Rus tilida-Rejissyor: Pyer Morel / Pierre Morel
Rollarda: Shon Penn, Xavyer Bardem, Rey Uinston, Jazmin Trinka, Idris Elba, Mark Raylens, Peter Fransen, Billi Billinxem, Deniel Adegboyega, Ade Oyefeso, Alexandro Tavante, Florian Barisey-Film haqida: Jim Terrye - mohir xalqaro qotil, sayyod. Biroq, kompaniya o'z ketini tozalashni boshlaganda, Jimning o'zi nishonga aylanadi. Omon qolish uchun Jim, sobiq hamkasb Feliksga murojaat qiladi va o'zidagi ayblov dalillarini oshkor qilish bilan tahdid qiladi. Biroq, Feliksning, Jim Terrye uning hayotidan g'oyib bo'lishi uchun boshqa sabablari bor edi. Bu Enni - ikkalasi ham sevgan ayol. Jim uchun butun Evropa bo'ylab halokatli ov boshlanadi va unga boshqa tanlash imkoni qolmaydi, yakka o'zi boshqalarga qarshi.- -Sifat: BDRip-AVC
Format: MKV
Video: AVC, 984x410, ~1424 kbps, 23,976 fps
Audio №1: MP3, 48 kHz, 128 kbps, 2 ch | Uzbek
Audio №2: AC3, 48 kHz, 384 kbps, 6 ch | Rus-

Miniatyura

MediaInfo

General
Unique ID                                : 222227453707296460182066952456304029401 (0xA72F7364BE75163984F3C464A76F6ED9)
Complete name                            : D:\Кино\Tarjima filmlar\Sayyod.2015.UZB.RUS.BDRip.x264-[MRLG].mkv
Format                                   : Matroska
Format version                           : Version 4 / Version 2
File size                                : 1.57 GiB
Duration                                 : 1 h 55 min
Overall bit rate                         : 1 938 kb/s
Movie name                               : The Gunman (2015) - HELLYWOOD
Encoded date                             : UTC 2019-03-22 06:57:50
Writing application                      : mkvmerge v31.0.0 ('Dolores In A Shoestand') 64-bit
Writing library                          : libebml v1.3.6 + libmatroska v1.4.9
Video
ID                                       : 1
Format                                   : AVC
Format/Info                              : Advanced Video Codec
Format profile                           : High@L4.1
Format settings, CABAC                   : Yes
Format settings, ReFrames                : 12 frames
Codec ID                                 : V_MPEG4/ISO/AVC
Duration                                 : 1 h 55 min
Bit rate                                 : 1 424 kb/s
Width                                    : 984 pixels
Height                                   : 410 pixels
Display aspect ratio                     : 2.40:1
Frame rate mode                          : Constant
Frame rate                               : 23.976 (24000/1001) FPS
Color space                              : YUV
Chroma subsampling                       : 4:2:0
Bit depth                                : 8 bits
Scan type                                : Progressive
Bits/(Pixel*Frame)                       : 0.147
Stream size                              : 1.15 GiB (73%)
Title                                    : potroks
Writing library                          : x264 core 146 r2538 121396c
Encoding settings                        : cabac=1 / ref=12 / deblock=1:-2:-2 / analyse=0x3:0x113 / me=umh / subme=11 / psy=1 / psy_rd=1.02:0.04 / mixed_ref=1 / me_range=56 / chroma_me=1 / trellis=2 / 8x8dct=1 / cqm=0 / deadzone=21,11 / fast_pskip=0 / chroma_qp_offset=-3 / threads=9 / lookahead_threads=2 / sliced_threads=0 / nr=0 / decimate=1 / interlaced=0 / bluray_compat=0 / constrained_intra=0 / bframes=13 / b_pyramid=2 / b_adapt=2 / b_bias=0 / direct=3 / weightb=1 / open_gop=0 / weightp=2 / keyint=250 / keyint_min=23 / scenecut=40 / intra_refresh=0 / rc_lookahead=60 / rc=2pass / mbtree=0 / bitrate=1424 / ratetol=1.0 / qcomp=0.70 / qpmin=0 / qpmax=69 / qpstep=4 / cplxblur=20.0 / qblur=0.5 / vbv_maxrate=14000 / vbv_bufsize=14000 / nal_hrd=none / filler=0 / ip_ratio=1.35 / pb_ratio=1.30 / aq=1:0.80
Language                                 : English
Default                                  : Yes
Forced                                   : No
Audio #1
ID                                       : 2
Format                                   : MPEG Audio
Format version                           : Version 1
Format profile                           : Layer 3
Mode                                     : Joint stereo
Mode extension                           : MS Stereo
Codec ID                                 : A_MPEG/L3
Codec ID/Hint                            : MP3
Duration                                 : 1 h 55 min
Bit rate mode                            : Constant
Bit rate                                 : 128 kb/s
Channel(s)                               : 2 channels
Sampling rate                            : 48.0 kHz
Frame rate                               : 41.667 FPS (1152 spf)
Compression mode                         : Lossy
Stream size                              : 106 MiB (7%)
Title                                    : UZB Dub | MRLG
Writing library                          : LAME3.100Є
Language                                 : Uzbek
Default                                  : Yes
Forced                                   : No
Audio #2
ID                                       : 3
Format                                   : AC-3
Format/Info                              : Audio Coding 3
Mode extension                           : CM (complete main)
Format settings, Endianness              : Big
Codec ID                                 : A_AC3
Duration                                 : 1 h 55 min
Bit rate mode                            : Constant
Bit rate                                 : 384 kb/s
Channel(s)                               : 6 channels
Channel positions                        : Front: L C R, Side: L R, LFE
Sampling rate                            : 48.0 kHz
Frame rate                               : 31.250 FPS (1536 spf)
Compression mode                         : Lossy
Stream size                              : 318 MiB (20%)
Title                                    : Dub | DD 5.1 @ 384 kbps - iTunes
Language                                 : Russian
Default                                  : No
Forced                                   : No
Menu
00:00:00.000                             : en:00:00:00.000
00:04:48.747                             : en:00:04:48.747
00:10:29.963                             : en:00:10:29.963
00:14:22.987                             : en:00:14:22.987
00:18:00.788                             : en:00:18:00.788
00:23:17.396                             : en:00:23:17.396
00:27:53.130                             : en:00:27:53.130
00:34:14.886                             : en:00:34:14.886
00:39:51.139                             : en:00:39:51.139
00:45:51.582                             : en:00:45:51.582
00:50:19.934                             : en:00:50:19.934
00:58:10.404                             : en:00:58:10.404
01:04:37.165                             : en:01:04:37.165
01:08:27.478                             : en:01:08:27.478
01:14:44.230                             : en:01:14:44.230
01:21:37.726                             : en:01:21:37.726
01:31:18.223                             : en:01:31:18.223
01:38:39.330                             : en:01:38:39.330
01:45:34.370                             : en:01:45:34.370
01:49:15.841                             : en:01:49:15.841
.torrent yuklash

Yuqori tezlikda va bepul ko‘chirish!

Qanday yuklab olinadi? · Torrent nima o‘zi? · Reyting va cheklovlar

Profil ShX

MRLG ®

Jins:
Yigit
Staj:
1 yil 10 oy
Xabarlar:
603
Taqiq:

Anchadan beri reliz qilmay qo'ygandim. ))) Ko'chiruvchilarga sabr tilayman. Upload 50 kbdan oshmasligi mumkin.

Mavzu yaratish 22-Mar-2019 15:31 (2 daqiqa o‘tgach)

Iqitibos

Profil ShX

N.U.R.I.K.B.E.K

Jins:
Yigit
Staj:
1 yil 7 oy
Xabarlar:
476

Qayerdan: Jizzax. Paxtakor

Taqiq:

7866Anchadan beri reliz qilmay qo'ygandim. ))) Ko'chiruvchilarga sabr tilayman. Upload 50 kbdan oshmasligi mumkin.
xechqisi yo toma-toma ko'l bo'lur.

Mavzu yaratish 22-Mar-2019 16:35 (1 soat 3 daqiqa o‘tgach)

Iqitibos

Profil ShX

ganster07

Jins:
Yigit
Staj:
1 yil 9 oy
Xabarlar:
29
Taqiq:

MRLG, salom bu telefon linya yaxshi emas ku 6 snr bu kechki payt tashlab ishlamaydi magistral kabellar almashtirishyabdimi

Mavzu yaratish 22-Mar-2019 18:52 (2 soat 16 daqiqa o‘tgach)

Iqitibos

Profil ShX

AxeL

Jins:
Yigit
Staj:
1 yil 2 oy
Xabarlar:
740

Qayerdan: Gronland, Norway

Taqiq:

yahshi kinoga o'xshayapti, nixoyat, MRLG dan comeback ag

Mavzu yaratish 22-Mar-2019 18:54 (2 daqiqa o‘tgach)

Iqitibos

Profil ShX

ganster07

Jins:
Yigit
Staj:
1 yil 9 oy
Xabarlar:
29
Taqiq:

MRLG, hamma gap magistral linyada ekan kabellari almashtirish gandan keyin SNR ham baland boldi http://img.uz/s?h6fk9be

Mavzu yaratish 22-Mar-2019 19:02 (8 daqiqa o‘tgach)

Iqitibos

Profil ShX

MRLG ®

Jins:
Yigit
Staj:
1 yil 10 oy
Xabarlar:
603
Taqiq:

ganster07, Bilmadim. Bir necha marta aytsam ham tuzatib berisha olishmadi. Optika esa biz tomonlarga 20 yillarda kelishini aytishdi. Upload oldinlari yaxshi edi. Shu dekabr oyida tezliklar 1 barobar oshgach, upload 1 barobarga tushdi. Eng qizig'i, ip manzil o'zgarganda upload tezlik ham o'zgarib turardi. ba'zida 1mb/s bo'lsa, ba'zida yuqoridagi ko'rsatgich bo'lardi. Hozir faqat shu past ko'rsatgichda qolgan. Endi faqat optika kelishini kutish qoldi holos)
AxeL, Shunday yaxshi kinoga o'xshaydi. Rembo bilan Bornni aralashmasi))) 200 ta joyidan qaychi yegan film)))

Mavzu yaratish 22-Mar-2019 19:12 (9 daqiqa o‘tgach)

Iqitibos

Profil ShX

Soft-Release

Jins:
Yigit
Staj:
1 yil 3 oy
Xabarlar:
775

Qayerdan: Kattakurgan

Taqiq:

7871ganster07, Bilmadim. Bir necha marta aytsam ham tuzatib berisha olishmadi. Optika esa biz tomonlarga 20 yillarda kelishini aytishdi. Upload oldinlari yaxshi edi. Shu dekabr oyida tezliklar 1 barobar oshgach, upload 1 barobarga tushdi. Eng qizig'i, ip manzil o'zgarganda upload tezlik ham o'zgarib turardi. ba'zida 1mb/s bo'lsa, ba'zida yuqoridagi ko'rsatgich bo'lardi. Hozir faqat shu past ko'rsatgichda qolgan. Endi faqat optika kelishini kutish qoldi holos)
AxeL, Shunday yaxshi kinoga o'xshaydi. Rembo bilan Bornni aralashmasi))) 200 ta joyidan qaychi yegan film)))
MRLG, Assalom Aleykum Admin Aka Xayrli Kech Optika Keladi Shu Yil Oxirigacha Yoki 2020 Yilgacha Butun Aholini Optikaga O'tkaziladi! Nasib Bo'lsa Hudo Hohlasa

Mavzu yaratish 22-Mar-2019 19:19 (6 daqiqa o‘tgach)

Iqitibos

Profil ShX

N.U.R.I.K.B.E.K

Jins:
Yigit
Staj:
1 yil 7 oy
Xabarlar:
476

Qayerdan: Jizzax. Paxtakor

Taqiq:

ganster07, snr bu nimani bildiradi

Mavzu yaratish 22-Mar-2019 19:19 (41 soniya o‘tgach)

Iqitibos

Profil ShX

Asilbek 007

Jins:
Ko‘rsatilmagan
Staj:
1 yil 2 oy
Xabarlar:
16
Taqiq:

Bu kino menda bor edi, lekin asilmediaga joylashga shoshmagandim, joylab qo`yibsizlarku a :))))

Mavzu yaratish 22-Mar-2019 20:19 (59 daqiqa o‘tgach)

Iqitibos

Profil ShX

ganster07

Jins:
Yigit
Staj:
1 yil 9 oy
Xabarlar:
29
Taqiq:

N.U.R.I.K.B.E.K, Salom snr bu linyani shum bildiradi eng pasti 6 snr boladi balandi 20 snr baland bolsa yaxshi boladi

Mavzu yaratish 23-Mar-2019 00:09 (3 soat o‘tgach)

Iqitibos

Profil ShX

ganster07

Jins:
Yigit
Staj:
1 yil 9 oy
Xabarlar:
29
Taqiq:

MRLG, optika oʻtkazish bu qimmat lekin adsl linyaga bogʻliq ekan oldin 6 snr edi biz taraflardan ham hozir kabellarni almashtirish 27 snr kunduzi kechki payt 23 snr boladi tashlab ishlamaydi oldin kop tashlab ishlar edi hammasi kabeldan ekan magistral

Mavzu yaratish 23-Mar-2019 00:16 (7 daqiqa o‘tgach)

Iqitibos

Profil ShX

N.U.R.I.K.B.E.K

Jins:
Yigit
Staj:
1 yil 7 oy
Xabarlar:
476

Qayerdan: Jizzax. Paxtakor

Taqiq:

ganster07, ular tortib kelgan kabeldami ayb stalbalardagi.

Mavzu yaratish 23-Mar-2019 14:03 (13 soat o‘tgach)

Iqitibos

Profil ShX

ganster07

Jins:
Yigit
Staj:
1 yil 9 oy
Xabarlar:
29
Taqiq:

N.U.R.I.K.B.E.K, stalbada ham magistral da ham bolishi mumkin eskirgan bolishi mumkin kabellar Uztelecom dagilarga aytsangiz korib aytishadi aybini hamma gap shu kabellarda eskirgan bolmasa ats yaqinda bolsa yaxshi ishlaydi internet

Mavzu yaratish 23-Mar-2019 14:30 (27 daqiqa o‘tgach)

Iqitibos

Profil ShX
Xabarlarni ko‘rsatish:    

Hozirgi vaqt: 17-Iyun 18:38

Vaqtlar farqi: UTC + 5



Siz mavzu yaratishingiz mumkin emas
Siz xabarlarga javob qaytarishingiz mumkin emas
Siz o‘z xabarlaringizni tahrirlashingiz mumkin emas
Siz o‘z xabarlaringizni o‘chirishingiz mumkin emas
Siz so‘rovlarda ovoz berishingiz mumkin emas
Siz xabalarga fayllarni biriktirishingiz mumkin emas
Siz fayllarni ko‘chirishingiz mumkin emas