˂
˃
Tarqatmalar statistikasi
Ko‘chirmoqdaman: [ 8 ]
Ko‘chirib bo‘ldim: [ 50 ]
 
     
 
 

MRLG ®

Jins:
Yigit
Staj:
1 yil 10 oy
Xabarlar:
603
Taqiq:

| O'rgimchak odam: Yondosh olamlar |
| Человек-паук: Через вселенные |
Spider-Man: Into the Spider-Verse
«Enter a universe where more than one wears the mask» MULTFILM HAQIDA MA'LUMOT
Chiqqan yili: 2018
Davlat: AQSH
Janr: multfilm, fantastika, jangari, sarguzasht, oilaviy
Davomiyligi: 01:56:50
Tarjima: Professional [Ko'p ovozli] Milliy TV
Tarjima #2: To'liq dublyaj [iTunes]
Rejissyor: Bob Persichetti, Piter Remzi, Rodni Rotman / Bob Persichetti, Peter Ramsey, Rodney Rothman

Rollarda
Shameik Mur, Djeyk Djonson, Xeyli Staynfeld, Maxershala Ali, Brayan Tayri Genri, Lili Tomlin, Loren Veles, Zoi Kravis, Djon Muleyni, Kimiko Glenn, Nikolas Keydj, Ketrin Xan, Liv Shrayber, Kris Payn, Natali Morales, Edvin Xebakon, Oskar Ayzek, Greta Li, Sten Li, Yorma Takkone

Tavsif
Biz Piter Parker haqida barchasini bilamiz. U shaharni qutqardi, sevib qoldi, shaharni yana va yana qutqardi... Ammo bularning barchasi bizning olamimizda. Agar ulkan bir to`qnashuvchining ishi natijasida bir olamdan boshqasiga tuynuk ochilsa nima bo`ladi? U joyning ham o`zining O`rgimchak odami bormi? Va u qanday ko`rinishga ega bo`ladi? Turli koinotlarda turli xil o`rgimchak odamlari bo`lishi mumkinligiga tayyorgarlik ko`ring va bir kun ular deyarli yengilmas dushmanga qarshi kurashish uchun bir joyga to`planishlari kerak.

Texnik ma'lumotlar


Sifat: HDRip
Format: AVI
Video: XviD 720x304 (2.35:1) 1395 kbps 23,976 fps 0,266 bpp
Audio №1: MP3 / 2.0 / 48 kHz / 128 kbps / | UZB | MilliyTV
Audio №2: AC3 / 5.1 / 48 kHz / 384 kbps / | RUS | Itunes

MI

General
Complete name                            : D:\Кино\Tarjima filmlar\O'rgimchak.Odam.Yondosh.Olamlar.(2018.HDRip) -MRLG.avi
Format                                   : AVI
Format/Info                              : Audio Video Interleave
File size                                : 1.57 GiB
Duration                                 : 1 h 56 min
Overall bit rate                         : 1 922 kb/s
Writing application                      : VirtualDubMod 1.5.10.3 (build 2550/release)
Writing library                          : VirtualDubMod build 2550/release
Video
ID                                       : 0
Format                                   : MPEG-4 Visual
Format profile                           : Advanced Simple@L5
Format settings, BVOP                    : 1
Format settings, QPel                    : No
Format settings, GMC                     : No warppoints
Format settings, Matrix                  : Custom
Codec ID                                 : XVID
Codec ID/Hint                            : XviD
Duration                                 : 1 h 56 min
Bit rate                                 : 1 396 kb/s
Width                                    : 720 pixels
Height                                   : 304 pixels
Display aspect ratio                     : 2.35:1
Frame rate                               : 23.976 (24000/1001) FPS
Color space                              : YUV
Chroma subsampling                       : 4:2:0
Bit depth                                : 8 bits
Scan type                                : Progressive
Compression mode                         : Lossy
Bits/(Pixel*Frame)                       : 0.266
Stream size                              : 1.14 GiB (73%)
Writing library                          : XviD 73
Audio #1
ID                                       : 1
Format                                   : MPEG Audio
Format version                           : Version 1
Format profile                           : Layer 3
Mode                                     : Joint stereo
Mode extension                           : MS Stereo
Codec ID                                 : 55
Codec ID/Hint                            : MP3
Duration                                 : 1 h 56 min
Bit rate mode                            : Constant
Bit rate                                 : 128 kb/s
Channel(s)                               : 2 channels
Sampling rate                            : 48.0 kHz
Compression mode                         : Lossy
Stream size                              : 107 MiB (7%)
Alignment                                : Aligned on interleaves
Interleave, duration                     : 42  ms (1.00 video frame)
Interleave, preload duration             : 504  ms
Writing library                          : LAME3.100Є
Audio #2
ID                                       : 2
Format                                   : AC-3
Format/Info                              : Audio Coding 3
Mode extension                           : CM (complete main)
Format settings, Endianness              : Big
Codec ID                                 : 2000
Duration                                 : 1 h 56 min
Bit rate mode                            : Constant
Bit rate                                 : 384 kb/s
Channel(s)                               : 6 channels
Channel positions                        : Front: L C R, Side: L R, LFE
Sampling rate                            : 48.0 kHz
Frame rate                               : 31.250 FPS (1536 spf)
Compression mode                         : Lossy
Stream size                              : 321 MiB (20%)
Alignment                                : Split accross interleaves
Interleave, duration                     : 42  ms (1.00 video frame)
Interleave, preload duration             : 500  ms

Miniatyura

LAVHALAR
.torrent yuklash

Yuqori tezlikda va bepul ko‘chirish!

Qanday yuklab olinadi? · Torrent nima o‘zi? · Reyting va cheklovlar

Profil ShX

N.U.R.I.K.B.E.K

Jins:
Yigit
Staj:
1 yil 7 oy
Xabarlar:
476

Qayerdan: Jizzax. Paxtakor

Taqiq:

Ulgirmadimku ))

Mavzu yaratish 23-Mar-2019 21:32 (3 soat o‘tgach)

Iqitibos

Profil ShX
Xabarlarni ko‘rsatish:    

Hozirgi vaqt: 17-Iyun 17:39

Vaqtlar farqi: UTC + 5



Siz mavzu yaratishingiz mumkin emas
Siz xabarlarga javob qaytarishingiz mumkin emas
Siz o‘z xabarlaringizni tahrirlashingiz mumkin emas
Siz o‘z xabarlaringizni o‘chirishingiz mumkin emas
Siz so‘rovlarda ovoz berishingiz mumkin emas
Siz xabalarga fayllarni biriktirishingiz mumkin emas
Siz fayllarni ko‘chirishingiz mumkin emas