˂
˃
Tarqatmalar statistikasi
Ko‘chirmoqdaman: [ 1 ]
Ko‘chirib bo‘ldim: [ 2 ]
 
     
 
 

AxeL ®

Jins:
Yigit
Staj:
1 yil 1 oy
Xabarlar:
711

Qayerdan: Gronland, Norway

Taqiq:

O'rgimchak odam: Yondosh olamlar / Человек-паук: Через вселенные / Spider-Man: Into the Spider-Verse- Chiqqan yili: 2018
Davlat: AQSH
Janr: multfilm, fantastika, jangari, sarguzasht, oilaviy
Davomiyligi: 01:56:50
Tarjima: Professional [Ko'p ovozli] Milliy TV
Tarjima #2: To'liq dublyaj iTunes-Rejissyor: Bob Persichetti, Piter Remzi, Rodni Rotman-Rollarda: Shameik Mur, Djeyk Djonson, Xeyli Staynfeld, Maxershala Ali, Brayan Tayri Genri, Lili Tomlin, Loren Veles, Zoi Kravis, Djon Muleyni, Kimiko Glenn, Nikolas Keydj, Ketrin Xan, Liv Shrayber, Kris Payn, Natali Morales, Edvin Xebakon, Oskar Ayzek, Greta Li, Sten Li, Yorma Takkone-Tavsif: Biz Piter Parker haqida barchasini bilamiz. U shaharni qutqardi, sevib qoldi, shaharni yana va yana qutqardi... Ammo bularning barchasi bizning olamimizda. Agar ulkan bir to`qnashuvchining ishi natijasida bir olamdan boshqasiga tuynuk ochilsa nima bo`ladi? U joyning ham o`zining O`rgimchak odami bormi? Va u qanday ko`rinishga ega bo`ladi? Turli koinotlarda turli xil o`rgimchak odamlari bo`lishi mumkinligiga tayyorgarlik ko`ring va bir kun ular deyarli yengilmas dushmanga qarshi kurashish uchun bir joyga to`planishlari kerak.- -Sifat: HDRip
Format: MVK
Video: MPEG4 Video (H264) 780x326 23.976fps 826 Kbps
Audio №1: AAC 48000Hz stereo 64.0 Kbps Rus tilida
Audio №2: MP3 44100Hz stereo 192kbps O'zbek tilida-

MI

General
Unique ID                      : 151682178039406057821414175462375549063 (0x721CECC4628D4E25E61263B310E7E887)
Complete name                  : D:\Films\Multfilms\HD Video\O'rgimchak_Odam_Yondosh_Olamlar_AxeL.mkv
Format                         : Matroska
Format version                 : Version 4 / Version 2
File size                      : 906 MiB
Duration                       : 1h 56mn
Overall bit rate               : 1 085 Kbps
Movie name                     : Человек-паук Через вселенные (2018) HDRip-AVC_ivanes
Encoded date                   : UTC 2019-03-23 18:11:02
Writing application            : mkvmerge v22.0.0 ('At The End Of The World') 64-bit
Writing library                : libebml v1.3.5 + libmatroska v1.4.8
Attachements                   : cover.jpg
Video
ID                             : 1
Format                         : AVC
Format/Info                    : Advanced Video Codec
Format profile                 : High@L4.1
Format settings, CABAC         : Yes
Format settings, ReFrames      : 12 frames
Codec ID                       : V_MPEG4/ISO/AVC
Duration                       : 1h 56mn
Bit rate                       : 826 Kbps
Width                          : 780 pixels
Height                         : 326 pixels
Display aspect ratio           : 2.40:1
Frame rate mode                : Constant
Frame rate                     : 23.976 (24000/1001) fps
Color space                    : YUV
Chroma subsampling             : 4:2:0
Bit depth                      : 8 bits
Scan type                      : Progressive
Bits/(Pixel*Frame)             : 0.135
Stream size                    : 690 MiB (76%)
Title                          : Rip by ivanes
Writing library                : x264 core 157 r2935 545de2f
Encoding settings              : cabac=1 / ref=12 / deblock=1:-3:-2 / analyse=0x3:0x113 / me=umh / subme=10 / psy=1 / psy_rd=1.00:0.00 / mixed_ref=1 / me_range=32 / chroma_me=1 / trellis=2 / 8x8dct=1 / cqm=0 / deadzone=21,11 / fast_pskip=0 / chroma_qp_offset=-2 / threads=10 / lookahead_threads=2 / sliced_threads=0 / nr=0 / decimate=1 / interlaced=0 / bluray_compat=0 / constrained_intra=0 / bframes=12 / b_pyramid=2 / b_adapt=2 / b_bias=0 / direct=1 / weightb=1 / open_gop=0 / weightp=2 / keyint=240 / keyint_min=23 / scenecut=40 / intra_refresh=0 / rc_lookahead=60 / rc=2pass / mbtree=0 / bitrate=826 / ratetol=1.0 / qcomp=0.60 / qpmin=0 / qpmax=69 / qpstep=4 / cplxblur=20.0 / qblur=0.5 / vbv_maxrate=50000 / vbv_bufsize=62500 / nal_hrd=none / filler=0 / ip_ratio=1.40 / pb_ratio=1.30 / aq=1:1.00
Default                        : Yes
Forced                         : No
Audio #1
ID                             : 2
Format                         : AAC
Format/Info                    : Advanced Audio Codec
Format profile                 : HE-AAC / LC
Codec ID                       : A_AAC
Duration                       : 1h 56mn
Bit rate                       : 64.0 Kbps
Channel(s)                     : 2 channels
Channel positions              : Front: L R
Sampling rate                  : 48.0 KHz / 24.0 KHz
Frame rate                     : 23.438 fps (1024 spf)
Compression mode               : Lossy
Stream size                    : 53.5 MiB (6%)
Title                          : iTunes
Language                       : Russian
Default                        : Yes
Forced                         : No
Audio #2
ID                             : 3
Format                         : MPEG Audio
Format version                 : Version 1
Format profile                 : Layer 3
Mode                           : Joint stereo
Mode extension                 : MS Stereo
Codec ID                       : A_MPEG/L3
Codec ID/Hint                  : MP3
Duration                       : 1h 56mn
Bit rate mode                  : Constant
Bit rate                       : 192 Kbps
Channel(s)                     : 2 channels
Sampling rate                  : 44.1 KHz
Frame rate                     : 38.281 fps (1152 spf)
Compression mode               : Lossy
Stream size                    : 160 MiB (18%)
Title                          : O'zbek tilida (AxeL)
Writing library                : LAME3.97
Language                       : Uzbek
Default                        : No
Forced                         : No
.torrent yuklash

Yuqori tezlikda va bepul ko‘chirish!

Qanday yuklab olinadi? · Torrent nima o‘zi? · Reyting va cheklovlar

Profil ShX
Xabarlarni ko‘rsatish:    

Hozirgi vaqt: 18-Apr 19:48

Vaqtlar farqi: UTC + 5



Siz mavzu yaratishingiz mumkin emas
Siz xabarlarga javob qaytarishingiz mumkin emas
Siz o‘z xabarlaringizni tahrirlashingiz mumkin emas
Siz o‘z xabarlaringizni o‘chirishingiz mumkin emas
Siz so‘rovlarda ovoz berishingiz mumkin emas
Siz xabalarga fayllarni biriktirishingiz mumkin emas
Siz fayllarni ko‘chirishingiz mumkin emas