˂
˃
Tarqatmalar statistikasi
Ko‘chirmoqdaman: [ 5 ]
Ko‘chirib bo‘ldim: [ 10 ]
 
     
 
 

logan7272 ®

Jins:
Yigit
Staj:
1 yil 2 oy
Xabarlar:
73

Qayerdan: Namangan

Taqiq:

O'rgimchak odam: Yondosh olamlar | Spider-Man: Into the Spider-Verse - Chiqqan yili: 2018
Davlat: AQSH
Janr: multfilm, fantastika, jangari, sarguzasht, oilaviy
Davomiyligi: 01:56:58
Tarjima: Professional [Ko'p ovozli] Milliy TV
-Rejissyor: Bob Persichetti, Piter Remzi, Rodni Rotman / Bob Persichetti, Peter Ramsey, Rodney Rothman-Rollarda: Shameik Mur, Djeyk Djonson, Xeyli Staynfeld, Maxershala Ali, Brayan Tayri Genri, Lili Tomlin, Loren Veles, Zoi Kravis, Djon Muleyni, Kimiko Glenn, Nikolas Keydj, Ketrin Xan, Liv Shrayber, Kris Payn, Natali Morales, Edvin Xebakon, Oskar Ayzek, Greta Li, Sten Li, Yorma Takkone-Tavsif: Biz Piter Parker haqida barchasini bilamiz. U shaharni qutqardi, sevib qoldi, shaharni yana va yana qutqardi... Ammo bularning barchasi bizning olamimizda. Agar ulkan bir to`qnashuvchining ishi natijasida bir olamdan boshqasiga tuynuk ochilsa nima bo`ladi? U joyning ham o`zining O`rgimchak odami bormi? Va u qanday ko`rinishga ega bo`ladi? Turli koinotlarda turli xil o`rgimchak odamlari bo`lishi mumkinligiga tayyorgarlik ko`ring va bir kun ular deyarli yengilmas dushmanga qarshi kurashish uchun bir joyga to`planishlari kerak.-КиноПоиск: 8.00 (45 669)
IMDb: 8.60 (154 931)-Sifat: Blu-Ray HEVC 1080p 10Bit
Format: MKV
Video: HEVC, 1920x800, ~1999 kbps, 23,976 fps
Audio: MP3, 44 kHz, 224 kbps, 2 ch | UZB
-

MediaInfo

General
Unique ID : 154456529952117672224001330158003881865
(0x74333EE090AFC32EE674C3F7FBD10789)
Complete name : Spider-Man Into the Spider-Verse 2018 (1080p x265 10bit S57 Joy).mkv
Format : Matroska
Format version : Version 4 / Version 2
File size : 1.82 GiB
Duration : 1 h 56 min
Overall bit rate : 2 223 kb/s
Movie name : Spider-Man Into the Spider-Verse 2018 (1080p x265 10bit S57 Joy)[UTR]
Encoded date : UTC 2019-03-24 05:04:18
Writing application : mkvmerge v30.1.0 ('Forever And More') 32-bit
Writing library : libebml v1.3.6 + libmatroska v1.4.9
Cover : Yes
Attachments : cover.jpg
Writing frontend : StaxRip v2.0, Encoded by JoyBell
Video
ID : 1
Format : HEVC
Format/Info : High Efficiency Video Coding
Format profile : Main 10@L4@Main
Codec ID : V_MPEGH/ISO/HEVC
Duration : 1 h 56 min
Bit rate : 1 999 kb/s
Width : 1 920 pixels
Height : 800 pixels
Display aspect ratio : 2.40:1
Frame rate mode : Constant
Frame rate : 23.976 (24000/1001) FPS
Color space : YUV
Chroma subsampling : 4:2:0
Bit depth : 10 bits
Bits/(Pixel*Frame) : 0.054
Stream size : 1.63 GiB (90%)
Writing library : x265 2.9+15-81373aab81df:[Windows][MSVC 1916][64 bit] 10bit
Encoding settings : cpuid=1111039 / frame-threads=3 / numa-pools=12 / wpp / no-pmode / no-pme
/ no-psnr / ssim / log-level=2 / input-csp=1 / input-res=1920x800 / interlace=0 / total-frames=168072 / level-
idc=0 / high-tier=1 / uhd-bd=0 / ref=4 / no-allow-non-conformance / no-repeat-headers / annexb / no-aud /
no-hrd / info / hash=0 / no-temporal-layers / open-gop / min-keyint=23 / keyint=250 / gop-lookahead=0 /
bframes=8 / b-adapt=2 / b-pyramid / bframe-bias=40 / rc-lookahead=80 / lookahead-slices=4 / scenecut=40
/ radl=0 / no-splice / no-intra-refresh / ctu=64 / min-cu-size=8 / rect / no-amp / max-tu-size=32 / tu-inter-
depth=1 / tu-intra-depth=1 / limit-tu=0 / rdoq-level=2 / dynamic-rd=0.00 / ssim-rd / signhide / no-tskip / nr-
intra=0 / nr-inter=0 / no-constrained-intra / strong-intra-smoothing / max-merge=3 / limit-refs=3 / limit-
modes / me=3 / subme=3 / merange=57 / temporal-mvp / weightp / no-weightb / no-analyze-src-pics /
deblock=0:0 / sao / no-sao-non-deblock / rd=4 / no-early-skip / rskip / no-fast-intra / no-tskip-fast / no-cu-
lossless / no-b-intra / no-splitrd-skip / rdpenalty=0 / psy-rd=2.25 / psy-rdoq=1.25 / no-rd-refine / no-lossless /
cbqpoffs=0 / crqpoffs=0 / rc=abr / bitrate=2000 / qcomp=0.60 / qpstep=4 / stats-write=0 / stats-read=2 /
cplxblur=20.0 / qblur=0.5 / ipratio=1.40 / pbratio=1.30 / aq-mode=3 / aq-strength=0.80 / cutree / zone-
count=0 / no-strict-cbr / qg-size=32 / no-rc-grain / qpmax=69 / qpmin=0 / no-const-vbv / sar=0 / overscan=0
/ videoformat=5 / range=0 / colorprim=2 / transfer=2 / colormatrix=2 / chromaloc=0 / display-window=0 /
max-cll=0,0 / min-luma=0 / max-luma=1023 / log2-max-poc-lsb=8 / vui-timing-info / vui-hrd-info / slices=1 /
no-opt-qp-pps / no-opt-ref-list-length-pps / multi-pass-opt-rps / scenecut-bias=0.05 / no-opt-cu-delta-qp /
no-aq-motion / no-hdr / no-hdr-opt / no-dhdr10-opt / no-idr-recovery-sei / analysis-reuse-level=10 / scale-
factor=0 / refine-intra=0 / refine-inter=0 / refine-mv=0 / limit-sao / ctu-info=0 / no-lowpass-dct / refine-mv-
type=0 / copy-pic=1 / max-ausize-factor=1.0 / no-dynamic-refine / no-single-sei
Default : Yes
Forced : No
Audio
ID : 2
Format : MPEG Audio
Format version : Version 1
Format profile : Layer 3
Format settings : Joint stereo
Mode : Joint stereo
Codec ID : A_MPEG/L3
Codec ID/Hint : MP3
Duration : 1 h 56 min
Bit rate mode : Constant
Bit rate : 224 kb/s
Channel(s) : 2 channels
Sampling rate : 44.1 kHz
Frame rate : 38.281 FPS (1152 SPF)
Compression mode : Lossy
Stream size : 187 MiB (10%)
Title : uzbek tili
Writing library : LAME3.99.5ЄЄЄЄЄЄЄЄЄЄ
Language : Uzbek
Default : Yes
Forced : No
Menu
00:00:00.000 : en:Chapter 01
00:09:03.793 : en:Chapter 02
00:14:04.718 : en:Chapter 03
00:18:51.672 : en:Chapter 04
00:29:38.735 : en:Chapter 05
00:34:14.385 : en:Chapter 06
00:40:34.765 : en:Chapter 07
00:44:22.826 : en:Chapter 08
00:48:06.884 : en:Chapter 09
00:58:45.480 : en:Chapter 10
01:06:04.251 : en:Chapter 11
01:09:55.482 : en:Chapter 12
01:20:00.003 : en:Chapter 13
01:24:54.798 : en:Chapter 14
01:33:33.316 : en:Chapter 15
01:55:26.836 : en:Chapter 16
LAVHALAR
.torrent yuklash

Yuqori tezlikda va bepul ko‘chirish!

Qanday yuklab olinadi? · Torrent nima o‘zi? · Reyting va cheklovlar



So‘ngi marta tahrirlandi: logan7272 (2019-03-24 12:41), Jami tahrirlangan 5 marta
Profil ShX

logan7272 ®

Jins:
Yigit
Staj:
1 yil 2 oy
Xabarlar:
73

Qayerdan: Namangan

Taqiq:

Inglizcha y`olagi va subtitrlari olib tashlangan

Mavzu yaratish 24-Mar-2019 11:06 (5 daqiqa o‘tgach)

Iqitibos

Profil ShX
Xabarlarni ko‘rsatish:    

Hozirgi vaqt: 17-Iyun 02:39

Vaqtlar farqi: UTC + 5



Siz mavzu yaratishingiz mumkin emas
Siz xabarlarga javob qaytarishingiz mumkin emas
Siz o‘z xabarlaringizni tahrirlashingiz mumkin emas
Siz o‘z xabarlaringizni o‘chirishingiz mumkin emas
Siz so‘rovlarda ovoz berishingiz mumkin emas
Siz xabalarga fayllarni biriktirishingiz mumkin emas
Siz fayllarni ko‘chirishingiz mumkin emas