˂
˃
Tarqatmalar statistikasi
Ko‘chiraman: [ 1 ]
Ko‘chirmoqdaman: [ 9 ]
Ko‘chirib bo‘ldim: [ 35 ]
 
     
 
 

logan7272 ®

Jins:
Yigit
Staj:
1 yil
Xabarlar:
64

Qayerdan: Namangan

Taqiq:

Varkraft | Warcraft - Chiqqan yili: 2016
Davlat: Xitoy, Kanada, Yaponiya, AQSH
Janr: fantastika, jangari, sarguzasht
Davomiyligi: 02:03:07
Tarjima: Professional [Ko'p ovozli] Navi Studio
-Rejissyor: Dunkan Jones / Duncan Jones
RollardaTravis Fimmel, Paula Patton, Ben Foster, Dominik Koper, Toby Kebbell, Ben Shnetser, Robert Casinsky, Klansi Braun, Daniel Wu, Rut Negga-

Tavsif: Asrlar mobaynida sehrli va beqaror devorlar odamlarni har qanday yomonlikdan himoya qilgan. Biroq qadimgi yovuzlik, ming yillar avval g'olib va unutilgan, uyg'ondi. Qirollikning markazida buyuk darvoza ochildi va g'ayritabiiy mavjudotlar irqlari Azerothning erlarini suv bosdi. Shunday qilib, bu dunyoning taqdirini abadiy o'zgartirishga chaqirilgan voqealar boshlandi.
-КиноПоиск:7.6 (142109)-Sifat: Blu-Ray
Format: MKV
Video: HEVC, 1920x792, ~1584 kbps, 23,976 fps
Audio: MP3, 48 kHz, 192 kbps, 2 ch | UZB
Subtitri: Inglizcha toliq (Original)

Media Info

General
Unique ID : 190675915350428094980573480269010468576 (0x8F72D872FEB45D3B70EE05B7CDA07EE0)
Complete name : Warcraft.2016.1080p.BluRay.AAC.6CH.x265.10bit.HEVC.mkv
Format : Matroska
Format version : Version 4 / Version 2
File size : 1.53 GiB
Duration : 2 h 3 min
Overall bit rate : 1 779 kb/s
Encoded date : UTC 2019-03-27 02:28:05
Writing application : mkvmerge v30.1.0 ('Forever And More') 32-bit
Writing library : libebml v1.3.6 + libmatroska v1.4.9
Video
ID : 1
Format : HEVC
Format/Info : High Efficiency Video Coding
Format profile : Main@L4@Main
Codec ID : V_MPEGH/ISO/HEVC
Duration : 2 h 3 min
Bit rate : 1 585 kb/s
Width : 1 920 pixels
Height : 792 pixels
Display aspect ratio : 2.40:1
Frame rate mode : Constant
Frame rate : 23.976 (24000/1001) FPS
Color space : YUV
Chroma subsampling : 4:2:0
Bit depth : 8 bits
Bits/(Pixel*Frame) : 0.043
Stream size : 1.36 GiB (89%)
Writing library : x265 2.1+47-a378efc939e3:[Linux][GCC 5.4.1][64 bit] 8bit+10bit+12bit
Encoding settings : wpp / ctu=64 / min-cu-size=8 / max-tu-size=32 / tu-intra-depth=1 / tu-inter-depth=1 / me=1 / subme=2 / merange=57 / no-rect / no-amp / max-merge=2 / temporal-mvp / no-early-skip / rskip / rdpenalty=0 / no-tskip / no-tskip-fast / strong-intra-smoothing / no-lossless / no-cu-lossless / no-constrained-intra / no-fast-intra / open-gop / no-temporal-layers / interlace=0 / keyint=250 / min-keyint=23 / scenecut=40 / scenecut-bias=0.05 / rc-lookahead=20 / lookahead-slices=5 / bframes=4 / bframe-bias=0 / b-adapt=2 / ref=3 / limit-refs=3 / no-limit-modes / weightp / no-weightb / aq-mode=1 / qg-size=32 / aq-strength=1.00 / cbqpoffs=0 / crqpoffs=0 / rd=3 / psy-rd=2.00 / rdoq-level=0 / psy-rdoq=0.00 / log2-max-poc-lsb=8 / limit-tu=0 / no-rd-refine / signhide / deblock=0:0 / sao / no-sao-non-deblock / b-pyramid / cutree / no-intra-refresh / rc=abr / bitrate=1600 / qcomp=0.60 / qpmin=0 / qpmax=69 / qpstep=4 / ipratio=1.40 / pbratio=1.30
Default : Yes
Forced : No
Audio
ID : 3
Format : MPEG Audio
Format version : Version 1
Format profile : Layer 3
Format settings : Joint stereo
Mode : Joint stereo
Codec ID : A_MPEG/L3
Codec ID/Hint : MP3
Duration : 2 h 3 min
Bit rate mode : Constant
Bit rate : 192 kb/s
Channel(s) : 2 channels
Sampling rate : 48.0 kHz
Frame rate : 41.667 FPS (1152 SPF)
Compression mode : Lossy
Stream size : 169 MiB (11%)
Writing library : LAME3.99.5ЄЄЄЄЄЄЄЄЄЄ
Default : Yes
Forced : No
Text
ID : 2
Format : UTF-8
Codec ID : S_TEXT/UTF8
Codec ID/Info : UTF-8 Plain Text
Duration : 1 h 53 min
Bit rate : 37 b/s
Count of elements : 1235
Stream size : 31.7 KiB (0%)
Default : Yes
Forced : No
Menu
00:00:00.000 : :00:00:00.000
00:09:26.483 : :00:09:26.483
00:15:49.407 : :00:15:49.407
00:22:36.146 : :00:22:36.146
00:29:16.171 : :00:29:16.171
00:38:43.321 : :00:38:43.321
00:46:44.093 : :00:46:44.093
00:53:02.679 : :00:53:02.679
00:56:17.332 : :00:56:17.332
01:02:43.927 : :01:02:43.927
01:07:48.314 : :01:07:48.314
01:12:24.549 : :01:12:24.549
01:17:13.045 : :01:17:13.045
01:22:45.669 : :01:22:45.669
01:26:32.145 : :01:26:32.145
01:32:29.669 : :01:32:29.669
01:40:25.102 : :01:40:25.102
01:47:38.118 : :01:47:38.118
01:51:12.833 : :01:51:12.833
01:53:58.832 : :01:53:58.832
.torrent yuklash

Yuqori tezlikda va bepul ko‘chirish!

Qanday yuklab olinadi? · Torrent nima o‘zi? · Reyting va cheklovlar

Profil ShX

MRLG

Jins:
Yigit
Staj:
1 yil 8 oy
Xabarlar:
577
Taqiq:

Navi Studio degan dublyaj studiya borligini bilmas ekanman.))) MY5 buyurtmasiga ko'ra Favvora Studiyasida shu filmni tarjima qilishganini eslayman.

Mavzu yaratish 27-Mar-2019 12:22 (1 soat 27 daqiqa o‘tgach)

Iqitibos

Profil ShX

N.U.R.I.K.B.E.K

Jins:
Yigit
Staj:
1 yil 5 oy
Xabarlar:
459

Qayerdan: Jizzax. Paxtakor

Taqiq:

Navi sayti õziga studiya xam ochkandurda

Mavzu yaratish 27-Mar-2019 12:50 (27 daqiqa o‘tgach)

Iqitibos

Profil ShX

logan7272 ®

Jins:
Yigit
Staj:
1 yil
Xabarlar:
64

Qayerdan: Namangan

Taqiq:

bilmasa, daxshat.uz saytida ko`chirdim

Mavzu yaratish 27-Mar-2019 13:37 (47 daqiqa o‘tgach)

Iqitibos

Profil ShX

duratan

Jins:
Yigit
Staj:
6 oy 28 kun
Xabarlar:
5

Qayerdan: Surxondaryo.Shurchi

Taqiq:

варкрафт узбекча тилда боши дан килинганми

Mavzu yaratish 27-Mar-2019 14:19 (41 daqiqa o‘tgach)

Iqitibos

Profil ShX

logan7272 ®

Jins:
Yigit
Staj:
1 yil
Xabarlar:
64

Qayerdan: Namangan

Taqiq:

duratan, ha

Mavzu yaratish 27-Mar-2019 14:51 (32 daqiqa o‘tgach)

Iqitibos

Profil ShX

Анваржон

Jins:
Ko‘rsatilmagan
Staj:
2 oy 20 kun
Xabarlar:
3
Taqiq:

Razdacha berilar 1 kundan beri tortib bo'lmayapti

Mavzu yaratish 29-Mar-2019 08:03 (1 kun 17 soat o‘tgach)

Iqitibos

Profil ShX

logan7272 ®

Jins:
Yigit
Staj:
1 yil
Xabarlar:
64

Qayerdan: Namangan

Taqiq:

Анваржон,

Mavzu yaratish 29-Mar-2019 13:45 (5 soat o‘tgach)

Iqitibos

Profil ShX

Анваржон

Jins:
Ko‘rsatilmagan
Staj:
2 oy 20 kun
Xabarlar:
3
Taqiq:

Zagruzka 4 kb dan oshmayapti tezlik berilar

Mavzu yaratish 30-Mar-2019 06:57 (17 soat o‘tgach)

Iqitibos

Profil ShX

dilshod6663

Jins:
Ko‘rsatilmagan
Staj:
1 yil 4 oy
Xabarlar:
53
Taqiq:

kuchirish tezligi juda xam past ozroq kutarishni iloji qilinmasa ololmaymiz

Mavzu yaratish 30-Mar-2019 11:52 (4 soat o‘tgach)

Iqitibos

Profil ShX

N.U.R.I.K.B.E.K

Jins:
Yigit
Staj:
1 yil 5 oy
Xabarlar:
459

Qayerdan: Jizzax. Paxtakor

Taqiq:

Yarmidan boshlab ovozi biroz ortda qopti, kinoni nimada taxlayapsiz qanaqa dasturda.

Mavzu yaratish 31-Mar-2019 17:42 (1 kun 5 soat o‘tgach)

Iqitibos

Profil ShX

AxeL

Jins:
Yigit
Staj:
1 yil 1 oy
Xabarlar:
711

Qayerdan: Gronland, Norway

Taqiq:

ovozlari orqada qolib ketgan joylari anchagina, menimcha ovoz yo'lakchani tog'ridan tog'ri biriktirib qo'yaverganmisiz deyman, unga ishlov berish kerak, shoshilmaslik kerak bunaqa ishlarda

Mavzu yaratish 31-Mar-2019 20:34 (2 soat 51 daqiqa o‘tgach)

Iqitibos

Profil ShX

logan7272 ®

Jins:
Yigit
Staj:
1 yil
Xabarlar:
64

Qayerdan: Namangan

Taqiq:

AxeL, ko`rib chiqib keyin tashlayapman

Mavzu yaratish 31-Mar-2019 21:57 (1 soat 23 daqiqa o‘tgach)

Iqitibos

Profil ShX

AxeL

Jins:
Yigit
Staj:
1 yil 1 oy
Xabarlar:
711

Qayerdan: Gronland, Norway

Taqiq:

logan7272, ovozlari orqada qolib ketgan joylari ko'p e'tibor bilan ishlangiz, relizizga xaridorlar ko'payadi, omad charchamang

Mavzu yaratish 03-Apr-2019 23:11 (3 kun o‘tgach)

Iqitibos

Profil ShX
Xabarlarni ko‘rsatish:    

Hozirgi vaqt: 18-Apr 19:43

Vaqtlar farqi: UTC + 5



Siz mavzu yaratishingiz mumkin emas
Siz xabarlarga javob qaytarishingiz mumkin emas
Siz o‘z xabarlaringizni tahrirlashingiz mumkin emas
Siz o‘z xabarlaringizni o‘chirishingiz mumkin emas
Siz so‘rovlarda ovoz berishingiz mumkin emas
Siz xabalarga fayllarni biriktirishingiz mumkin emas
Siz fayllarni ko‘chirishingiz mumkin emas