˂
˃
Tarqatmalar statistikasi
Ko‘chirmoqdaman: [ 5 ]
Ko‘chirib bo‘ldim: [ 30 ]
 
     
 
 

N.U.R.I.K.B.E.K ®

Jins:
Yigit
Staj:
1 yil 5 oy
Xabarlar:
459

Qayerdan: Jizzax. Paxtakor

Taqiq:

-Yashil Kitob | Зелёная книга | Green Book
--Chiqqan yili: 2019
Davlat: AQSH
Janr: Hayotiy, Drama, Kulguli.
Davomiyligi: 02:10:05
Tarjima 1 Audio Yo'lak: Milliy O'zbek Tilida
Tarjima 2 Audio Yo'lak: Rus Tili--Rejissyor: Piter Farrelli.--Rollarda: Wiggo Mortensen, Mahershala Ali, Linda Cardellini, Sebastian Maniskalko, Dimitar Marinov, Mayk Hutton, Pj. Byrne, Jozef Cortese, Maggie Nixon, Von Lyuis--Tavsif: Murakkab dunyoviy sher, boy va iste'dodli musiqachi, bu ish uchun eng mos bo'lgan haydovchi va qo'riqchi sifatida ishlaydi. Toni "Bolt" - og'zini qulfda ushlab turish va vilkalar pichoqlarini qanday ishlatishni bilmas edi, lekin u musht bilan yaxshi ishlaydi. Ushbu tur har ikkalasining ham hayotini abadiy o'zgartiradi.--Videoning sifati: WEB-DLRip (AVC)
Video format: MKV--Video: MPEG4 Video (H264) 976x486 23.976fps 1 413 Kbps
Audio: MP3 48000Hz stereo 128kbps O'zbek Tili
Audio 2: Dolby AC3 48000Hz 6ch 384kbps Rus Tili--

Media Info

General
Format : Matroska
Format version : Version 4 / Version 2
File size : 1.75 GiB
Duration : 2h 10mn
Overall bit rate : 1 925 Kbps
Movie name : Green.Book.2018 #TorpedoUK#
Encoded date : UTC 2019-03-30 11:42:37
Writing application : mkvmerge v15.0.0 ('Duel with the Devil') 64-bit
Writing library : libebml v1.3.5 + libmatroska v1.4.5
Attachements : cover1.png
DURATION : 02:10:08.496000000
NUMBER_OF_FRAMES : 325354
NUMBER_OF_BYTES : 124935936
_STATISTICS_WRITING_APP : mkvmerge v15.0.0 ('Duel with the Devil') 64-bit
_STATISTICS_WRITING_DATE_UTC : 2019-03-30 11:42:37
_STATISTICS_TAGS : BPS DURATION NUMBER_OF_FRAMES NUMBER_OF_BYTES
Video
ID : 1
Format : AVC
Format/Info : Advanced Video Codec
Format profile : High@L4.1
Format settings, CABAC : Yes
Format settings, ReFrames : 10 frames
Codec ID : V_MPEG4/ISO/AVC
Duration : 2h 10mn
Bit rate : 1 413 Kbps
Width : 976 pixels
Height : 486 pixels
Display aspect ratio : 2.008
Frame rate mode : Constant
Frame rate : 23.976 fps
Color space : YUV
Chroma subsampling : 4:2:0
Bit depth : 8 bits
Scan type : Progressive
Bits/(Pixel*Frame) : 0.124
Stream size : 1.25 GiB (71%)
Writing library : x264 core 146 r2538 121396c
Default : Yes
Forced : No
Audio #1
ID : 2
Format : MPEG Audio
Format version : Version 1
Format profile : Layer 3
Mode : Joint stereo
Codec ID : A_MPEG/L3
Codec ID/Hint : MP3
Duration : 2h 10mn
Bit rate mode : Constant
Bit rate : 128 Kbps
Channel(s) : 2 channels
Sampling rate : 48.0 KHz
Compression mode : Lossy
Stream size : 119 MiB (7%)
Title : O'zbek Tili
Writing library : LAME3.99.5
Language : Uzbek
Default : Yes
Forced : No
Audio #2
ID : 3
Format : AC-3
Format/Info : Audio Coding 3
Mode extension : CM (complete main)
Format settings, Endianness : Big
Codec ID : A_AC3
Duration : 2h 10mn
Bit rate mode : Constant
Bit rate : 384 Kbps
Channel(s) : 6 channels
Channel positions : Front: L C R, Side: L R, LFE
Sampling rate : 48.0 KHz
Compression mode : Lossy
Stream size : 357 MiB (20%)
Title : Rus Tili
Language : Russian
Default : No
Forced : No
LAVHALAR
.torrent yuklash

Yuqori tezlikda va bepul ko‘chirish!

Qanday yuklab olinadi? · Torrent nima o‘zi? · Reyting va cheklovlar

Profil ShX

N.U.R.I.K.B.E.K ®

Jins:
Yigit
Staj:
1 yil 5 oy
Xabarlar:
459

Qayerdan: Jizzax. Paxtakor

Taqiq:

Tarqatmada yordam beripturilar, men nargi relizni tarqatvolay.

Mavzu yaratish 31-Mar-2019 18:22 (23 soat o‘tgach)

Iqitibos

Profil ShX

CIIIA

Jins:
Ko‘rsatilmagan
Staj:
1 yil 2 oy
Xabarlar:
3
Taqiq:

7935Tarqatmada yordam beripturilar, men nargi relizni tarqatvolay.
shu qanday razdacha qiladi :D menga orgatinglar menda faqat skachat qilaveradi qilaveradi) razdacha 0 yoki 10kbaytga chiqadi , hammasi 0 da turipti alltor.me dan korgan edim nastroyka qilishni lekin befoyda boldi
P.S. provayder uztelecom.

Mavzu yaratish 09-Apr-2019 10:03 (8 kun o‘tgach)

Iqitibos

Profil ShX
Xabarlarni ko‘rsatish:    

Hozirgi vaqt: 18-Apr 19:20

Vaqtlar farqi: UTC + 5



Siz mavzu yaratishingiz mumkin emas
Siz xabarlarga javob qaytarishingiz mumkin emas
Siz o‘z xabarlaringizni tahrirlashingiz mumkin emas
Siz o‘z xabarlaringizni o‘chirishingiz mumkin emas
Siz so‘rovlarda ovoz berishingiz mumkin emas
Siz xabalarga fayllarni biriktirishingiz mumkin emas
Siz fayllarni ko‘chirishingiz mumkin emas