˂
˃
Tarqatmalar statistikasi
Ko‘chirmoqdaman: [ 10 ]
Ko‘chirib bo‘ldim: [ 33 ]
 
     
 
 

logan7272 ®

Jins:
Yigit
Staj:
1 yil 2 oy
Xabarlar:
73

Qayerdan: Namangan

Taqiq:

Himoyachi | Защитник | Safe
- Chiqqan yili: 2012
Davlat: AQSH
Janr: Jangari, Triller, Jinoyat.
Davomiyligi: 01:30:22
Tarjima: Professional [Ko'p ovozli O'zbek Tilida]-Rejissyor: Boyaz Yakin-Rollarda: Jeyson Statham, Ketrin Chan, Robert Jon Burke, Jeyms Xong, Anson Maunt, Chris Sarandon, Sandor Teksi, Jozef Sikora, Igor Jijikin, Reggi Li.-Film haqida: Ilgari maxsus xizmatlarning sobiq agenti Nyu-York mafiya agenti noyob qobiliyatli qizni qutqaradi.U millionlab dollarlik Xitoy Triodalari saqlanadigan joyning kodini biladigan yagona qiz edi. Endi qizni mafiya, Osiyo qotillari va korruptsiyali militsiyani uniqidirishga tushdi.- -Sifat: Blu-Ray 1080p
Format: MKV
Video: HEVC ; 1920x816 ; 4 161 kb/s; 25 fps
Audio №1: MP3, 224 Kbps, 2 ch | O'zbek Tilida
-

Media Info

General
Unique ID : 283323237123897219751397801011104252561 (0xD5261214EC5C035C02DD8746D0650291)
Complete name : Safe 2012 BDMux 1080p x265 .mkv
Format : Matroska
Format version : Version 4 / Version 2
File size : 2.77 GiB
Duration : 1 h 30 min
Overall bit rate : 4 386 kb/s
Encoded date : UTC 2019-03-31 06:30:49
Writing application : mkvmerge v30.1.0 ('Forever And More') 32-bit
Writing library : libebml v1.3.6 + libmatroska v1.4.9
Video
ID : 1
Format : HEVC
Format/Info : High Efficiency Video Coding
Format profile : Main@L4@Main
Codec ID : V_MPEGH/ISO/HEVC
Duration : 1 h 30 min
Bit rate : 4 161 kb/s
Width : 1 920 pixels
Height : 816 pixels
Display aspect ratio : 2.35:1
Frame rate mode : Constant
Frame rate : 25.000 FPS
Color space : YUV
Chroma subsampling : 4:2:0
Bit depth : 8 bits
Bits/(Pixel*Frame) : 0.106
Stream size : 2.63 GiB (95%)
Title : BDMux Paso77
Writing library : x265 2.9:[Windows][GCC 7.1.0][64 bit] 8bit+10bit+12bit
Language : English
Default : Yes
Forced : No
Color range : Limited
Color primaries : BT.709
Transfer characteristics : BT.709
Matrix coefficients : BT.709
Audio
ID : 2
Format : MPEG Audio
Format version : Version 1
Format profile : Layer 3
Mode : Joint stereo
Mode extension : MS Stereo
Codec ID : A_MPEG/L3
Codec ID/Hint : MP3
Duration : 1 h 30 min
Bit rate mode : Constant
Bit rate : 224 kb/s
Channel(s) : 2 channels
Sampling rate : 44.1 kHz
Frame rate : 38.281 FPS (1152 spf)
Compression mode : Lossy
Delay relative to video : -5 ms
Stream size : 145 MiB (5%)
Title : uzbek tili
Language : Uzbek
Default : Yes
Forced : No
LAVHALAR
.torrent yuklash

Yuqori tezlikda va bepul ko‘chirish!

Qanday yuklab olinadi? · Torrent nima o‘zi? · Reyting va cheklovlar

Profil ShX

N.U.R.I.K.B.E.K

Jins:
Yigit
Staj:
1 yil 7 oy
Xabarlar:
476

Qayerdan: Jizzax. Paxtakor

Taqiq:

Kamchiliklari To'g'irlandi.

Mavzu yaratish 31-Mar-2019 15:14 (50 daqiqa o‘tgach)

Iqitibos

Profil ShX

logan7272 ®

Jins:
Yigit
Staj:
1 yil 2 oy
Xabarlar:
73

Qayerdan: Namangan

Taqiq:

N.U.R.I.K.B.E.K, +

Mavzu yaratish 31-Mar-2019 15:24 (10 daqiqa o‘tgach)

Iqitibos

Profil ShX
Xabarlarni ko‘rsatish:    

Hozirgi vaqt: 17-Iyun 18:36

Vaqtlar farqi: UTC + 5



Siz mavzu yaratishingiz mumkin emas
Siz xabarlarga javob qaytarishingiz mumkin emas
Siz o‘z xabarlaringizni tahrirlashingiz mumkin emas
Siz o‘z xabarlaringizni o‘chirishingiz mumkin emas
Siz so‘rovlarda ovoz berishingiz mumkin emas
Siz xabalarga fayllarni biriktirishingiz mumkin emas
Siz fayllarni ko‘chirishingiz mumkin emas