˂
˃
Tarqatmalar statistikasi
Ko‘chiraman: [ 1 ]
Ko‘chirmoqdaman: [ 16 ]
Ko‘chirib bo‘ldim: [ 61 ]
 
     
 
 

N.U.R.I.K.B.E.K ®

Jins:
Yigit
Staj:
1 yil 7 oy
Xabarlar:
476

Qayerdan: Jizzax. Paxtakor

Taqiq:

-Uch Tomonlama Tahdid | Тройная угроза | Triple Threat

--Chiqqan yili: 2019
Davlat: Tayland, Xitoy, AQSH.
Janr: Jangari, Triller, Jinoyat.
Davomiyligi: 01:35:09
Tarjima 1 Audio Yo'lak: MY5 O'zbek Tilida
Tarjima 2 Audio Yo'lak: Rus Tili--Rejissyor: Jessi Jonson.--Rollarda: Toni Ja, Iko Uays, Tayger Chen, Scott Edkins, Selina Jeyd, Maykl Jey Uayd, Dominik Vandenberg, Yanin Vismitananda, Maykl Von, Daniel Uayt.--Tavsif: Xalqaro jinoiy guruh o'z jinoiy faoliyatini to'xtatish uchun homilador milliarder qizi o'ldirish uchun professional qotillar bir jamoa yuboradi. Qizni qutqarish uchun uchta yollanma askar, o'tmishda-muvaffaqiyatli jangchilar bo'ladi.--Videoning sifati: WEB-DLRip 720p HEVC
Video format: MKV
Video: HVC1 1280x536 23.976fps 1 010 kb/s
Audio: MP3 48000Hz stereo 128kbps O'zbek Tili
Audio 2: MP3 48000Hz stereo 128kbps Rus Tili--

Media Info

General
Format : Matroska
Format version : Version 4 / Version 2
File size : 863 MiB
Duration : 1 h 35 min
Overall bit rate : 1 268 kb/s
Movie name : PSArips.com | Triple.Threat.2019.720p.WEB-DL.2CH.x265.HEVC-PSA
Encoded date : UTC 2019-03-31 08:00:33
Writing application : mkvmerge v15.0.0 ('Duel with the Devil') 64-bit
Writing library : libebml v1.3.5 + libmatroska v1.4.5
Video
ID : 1
Format : HEVC
Format/Info : High Efficiency Video Coding
Format profile : Main@L3.1@Main
Codec ID : V_MPEGH/ISO/HEVC
Duration : 1 h 35 min
Bit rate : 1 010 kb/s
Width : 1 280 pixels
Height : 536 pixels
Display aspect ratio : 2.40:1
Frame rate mode : Constant
Frame rate : 23.976 (24000/1001) FPS
Color space : YUV
Chroma subsampling : 4:2:0
Bit depth : 8 bits
Bits/(Pixel*Frame) : 0.061
Stream size : 687 MiB (80%)
Default : Yes
Forced : No
Audio #1
ID : 2
Format : MPEG Audio
Format version : Version 1
Format profile : Layer 3
Mode : Joint stereo
Mode extension : MS Stereo
Codec ID : A_MPEG/L3
Codec ID/Hint : MP3
Duration : 1 h 35 min
Bit rate mode : Constant
Bit rate : 128 kb/s
Channel(s) : 2 channels
Sampling rate : 48.0 kHz
Frame rate : 41.667 FPS (1152 SPF)
Compression mode : Lossy
Stream size : 87.1 MiB (10%)
Title : O'zbek Tili
Writing library : LAME3.99.5
Language : Uzbek
Default : Yes
Forced : No
Audio #2
ID : 3
Format : MPEG Audio
Format version : Version 1
Format profile : Layer 3
Mode : Joint stereo
Mode extension : MS Stereo
Codec ID : A_MPEG/L3
Codec ID/Hint : MP3
Duration : 1 h 35 min
Bit rate mode : Constant
Bit rate : 128 kb/s
Channel(s) : 2 channels
Sampling rate : 48.0 kHz
Frame rate : 41.667 FPS (1152 SPF)
Compression mode : Lossy
Stream size : 87.1 MiB (10%)
Title : Rus Tili
Writing library : LAME3.99.5
Default : No
Forced : No
LAVHALAR
.torrent yuklash

Yuqori tezlikda va bepul ko‘chirish!

Qanday yuklab olinadi? · Torrent nima o‘zi? · Reyting va cheklovlar

Profil ShX

AxeL

Jins:
Yigit
Staj:
1 yil 2 oy
Xabarlar:
740

Qayerdan: Gronland, Norway

Taqiq:

e gap yo'q shu kinoni o'zbek tilidagisi chiqarmikin deb kutgandim, rahmat

Mavzu yaratish 31-Mar-2019 16:37 (2 soat 10 daqiqa o‘tgach)

Iqitibos

Profil ShX

N.U.R.I.K.B.E.K ®

Jins:
Yigit
Staj:
1 yil 7 oy
Xabarlar:
476

Qayerdan: Jizzax. Paxtakor

Taqiq:

AxeL, aa Arzimaydi.

Mavzu yaratish 31-Mar-2019 17:35 (58 daqiqa o‘tgach)

Iqitibos

Profil ShX

Lock

Jins:
Yigit
Staj:
8 oy 8 kun
Xabarlar:
41

Qayerdan: Namangan

Taqiq:

Kopernaum ni qachon tayyorlaysiz endi :)

Mavzu yaratish 01-Apr-2019 09:13 (15 soat o‘tgach)

Iqitibos

Profil ShX

N.U.R.I.K.B.E.K ®

Jins:
Yigit
Staj:
1 yil 7 oy
Xabarlar:
476

Qayerdan: Jizzax. Paxtakor

Taqiq:

7938Kopernaum ni qachon tayyorlaysiz endi :)
Endi reliz qilmayman, qilayotkan mehnatimizni osongina boshqa sayt egalari õzlarini saytiga joylashvoti, alam qilarkan endi qachon relizga trekerimizni bildirib turuvchi emlima va audio ovoz tayyor bõlsa õshanda reliz taxliman.

Mavzu yaratish 01-Apr-2019 19:19 (10 soat o‘tgach)

Iqitibos

Profil ShX

AxeL

Jins:
Yigit
Staj:
1 yil 2 oy
Xabarlar:
740

Qayerdan: Gronland, Norway

Taqiq:

7939
7938Kopernaum ni qachon tayyorlaysiz endi :)
Endi reliz qilmayman, qilayotkan mehnatimizni osongina boshqa sayt egalari õzlarini saytiga joylashvoti, alam qilarkan endi qachon relizga trekerimizni bildirib turuvchi emlima va audio ovoz tayyor bõlsa õshanda reliz taxliman.
endi o'zizga keldiz)) mundoq olib obdon o'ylab ko'rilsa, ana shu o'g'ri saytlarni bizzi treker boqyapti, birinchi navbatda daxshatni, ko'pgina ko'chalarda, gameclub, disk do'konlarida va boshqa joylarda anchagina mashhur ekan bu sayt(daxshat nazarda tutilyapti), lekin o'sha ajjoyib relizlar bilishmaydiki bu relizlarni asli qoni qayerdaligi...bu relizlarni sotsayam odam ancha foyda oladi odam, admin meni kechiring, ancha yig'ilib qolgan bir nimalar bor edi...mayli hammasini yozavermay...

Mavzu yaratish 02-Apr-2019 00:19 (5 soat o‘tgach)

Iqitibos

Profil ShX

Lock

Jins:
Yigit
Staj:
8 oy 8 kun
Xabarlar:
41

Qayerdan: Namangan

Taqiq:

Bundan oldingi uzbek trekerda pullik statuslar bo'lardi shuni yo'lga qo'yaylik bo'lmasa

Mavzu yaratish 02-Apr-2019 09:44 (9 soat o‘tgach)

Iqitibos

Profil ShX

Asilbek 007

Jins:
Ko‘rsatilmagan
Staj:
1 yil 2 oy
Xabarlar:
16
Taqiq:

AxeL, menda ham shu fikr bo`ldi, saytimga kinolarni joylayman logosi bo`lsa ham boshqa saytlar qirqqib tashlayverdi, hozir umuman ovozli rek bilan kino joylayapman saytimga

Mavzu yaratish 03-Apr-2019 23:22 (1 kun 13 soat o‘tgach)

Iqitibos

Profil ShX

+998972116462

Jins:
Ko‘rsatilmagan
Staj:
2 oy 12 kun
Xabarlar:
1
Taqiq:

Uch Tomonlama Tahdid / Тройная угроза / Triple Threat (Jessi Jonson.) [2019, Jangari, Triller, Jinoyat, WEB-DLRip 720p HEVC] O'zbek va Rus Tillarda.

Mavzu yaratish 05-Apr-2019 15:13 (1 kun 15 soat o‘tgach)

Iqitibos

Profil ShX
Xabarlarni ko‘rsatish:    

Hozirgi vaqt: 17-Iyun 17:37

Vaqtlar farqi: UTC + 5



Siz mavzu yaratishingiz mumkin emas
Siz xabarlarga javob qaytarishingiz mumkin emas
Siz o‘z xabarlaringizni tahrirlashingiz mumkin emas
Siz o‘z xabarlaringizni o‘chirishingiz mumkin emas
Siz so‘rovlarda ovoz berishingiz mumkin emas
Siz xabalarga fayllarni biriktirishingiz mumkin emas
Siz fayllarni ko‘chirishingiz mumkin emas