˂
˃
Tarqatmalar statistikasi
Ko‘chirib bo‘ldim: [ 30 ]
 
     
 
 

MRLG ®

Jins:
Yigit
Staj:
1 yil 10 oy
Xabarlar:
603
Taqiq:

-Qadrdonlar / Это чертово сердце / Dieses bescheuerte Herz«Biz bilmaymiz, ertaga nima bo'lishini; Bizning ishimiz - bugun baxtli bo'lish»-
MA'LUMOT:
    Chiqqan yili: 2017
    Davlat: Germaniya
    Janr: drama, komediya

    Davomiyligi: 01:46:22
    Tarjima:
    • Professional ko'p ovozli [Kinoteatr]
    -Rejissyor: Mark Rotemund / Marc Rothemund
-ROLLARDA:
    Elias EmBarek, Filip Shvars, Nadina Vris, Uve Proyss, Liza Bitter, Yurgen Tonkel, Bruno Sauter, Lu Bishoff, Sebastyan Gerold, Kim Girshner, Djo Kern, Tesha Mun Krig
-TAVSIF:
    Lenni yagona mashg`uloti - do`stlari bilan tugalmas tungi klublardir. Uning har qanday injiqliklarini otasi to`lashiga o`rganib qolgan. Xuddi shu shaharda 15 yoshli Devid u bilan birga yashaydi. U butun vaqtini uyda o'tkazadi. Devid tug'ma yurak kasalligiga chalingan va shifokorlarning tashhizlarini juda yaxshi deb bo`lmaydi. Lennining otasi, o'g'lining befoydaligidan charchab, Devidga g'amxo'rlik qilishni ishonib topshiradi. To'satdan, bu ikkisi bir-biri bilan tez til topishadi. Lenni bu yigitchaga hayot lazzatlarini his qilishni va orzularini ro'yobga chiqarishga yordam beradi, va Devid, o'z navbatida, uning hayoti va atrofidagi kishilarning hayoti uchun javobgarlikni his qilish imkoniyatini beradi.- -Sifat: BDRip
    Format: AVI
    Video: XviD 720x304 (2.35:1) 1573 kbps 24 fps 0,300 bpp
    Audio: MP3 / 2.0 / 48 kHz / 128 kbps / | O'zbek tilida [Kinoteatr]-

MI

General
Complete name                            : D:\Кино\Tarjima filmlar\Qadrdonlar.2017.BDRip.-[MRLG].avi
Format                                   : AVI
Format/Info                              : Audio Video Interleave
File size                                : 1.27 GiB
Duration                                 : 1 h 46 min
Overall bit rate                         : 1 711 kb/s
Writing application                      : VirtualDubMod 1.5.10.3 (build 2550/release)
Writing library                          : VirtualDubMod build 2550/release
Video
ID                                       : 0
Format                                   : MPEG-4 Visual
Format profile                           : Advanced Simple@L5
Format settings, BVOP                    : 2
Format settings, QPel                    : No
Format settings, GMC                     : No warppoints
Format settings, Matrix                  : Custom
Codec ID                                 : XVID
Codec ID/Hint                            : XviD
Duration                                 : 1 h 46 min
Bit rate                                 : 1 574 kb/s
Width                                    : 720 pixels
Height                                   : 304 pixels
Display aspect ratio                     : 2.35:1
Frame rate                               : 24.000 FPS
Color space                              : YUV
Chroma subsampling                       : 4:2:0
Bit depth                                : 8 bits
Scan type                                : Progressive
Compression mode                         : Lossy
Bits/(Pixel*Frame)                       : 0.300
Stream size                              : 1.17 GiB (92%)
Writing library                          : XviD 73
Audio
ID                                       : 1
Format                                   : MPEG Audio
Format version                           : Version 1
Format profile                           : Layer 3
Mode                                     : Joint stereo
Mode extension                           : MS Stereo
Codec ID                                 : 55
Codec ID/Hint                            : MP3
Duration                                 : 1 h 46 min
Bit rate mode                            : Constant
Bit rate                                 : 128 kb/s
Channel(s)                               : 2 channels
Sampling rate                            : 48.0 kHz
Compression mode                         : Lossy
Stream size                              : 97.4 MiB (7%)
Alignment                                : Aligned on interleaves
Interleave, duration                     : 42  ms (1.00 video frame)
Interleave, preload duration             : 504  ms
Writing library                          : LAME3.100Є

Miniatyura

LAVHALAR
.torrent yuklash

Yuqori tezlikda va bepul ko‘chirish!

Qanday yuklab olinadi? · Torrent nima o‘zi? · Reyting va cheklovlar

Profil ShX
Xabarlarni ko‘rsatish:    

Hozirgi vaqt: 17-Iyun 18:07

Vaqtlar farqi: UTC + 5



Siz mavzu yaratishingiz mumkin emas
Siz xabarlarga javob qaytarishingiz mumkin emas
Siz o‘z xabarlaringizni tahrirlashingiz mumkin emas
Siz o‘z xabarlaringizni o‘chirishingiz mumkin emas
Siz so‘rovlarda ovoz berishingiz mumkin emas
Siz xabalarga fayllarni biriktirishingiz mumkin emas
Siz fayllarni ko‘chirishingiz mumkin emas