˂
˃
 

Gr@nd ®

Jins:
Yigit
Staj:
1 yil 8 oy
Xabarlar:
166

Qayerdan: Jizzax Forish

Taqiq:

Asal oyi- --Chiqqan yili: 2018
Davlat: O'zbekiston
Janr: Oilaviy, komediya
Davomiyligi: 01:41:40-Rejissyor: Jahongir Ahmedov-Rollarda: Shahzoda Muhammedova, Azamat Ahrorov, Ra`no Yarasheva, Muhammad Iso Abdulxayirov, Dilshod Mirzamuratov-Tavsif: Filmning asosiy voqealari ya`ni asosan chet elda suratga olingan bo`lib, moddiy xarajatlarni uchta katta prodyuserlar o`z bo`yniga olganligi ham filmning nechog`lik katta kino kartinka ekanligidan dalolat beradi. Nahotki filmning byudjeti shu darajada katta bo`lsa?-Videoning sifati: HDRip-AVC
Format: MP4-Video: MPEG4 Video (H264) 1920x804 25fps, 1 683 Kbps
Audio: AAC 44100Hz stereo 1411kbps-

MediaInfo

General
Format : MPEG-4
Format profile : Base Media
Codec ID : isom
File size : 1.29 GiB
Duration : 1h 41mn
Overall bit rate : 1 817 Kbps
Writing application : Lavf57.2.100
Video
ID : 1
Format : AVC
Format/Info : Advanced Video Codec
Format profile : High@L4.0
Format settings, CABAC : Yes
Format settings, ReFrames : 3 frames
Codec ID : avc1
Codec ID/Info : Advanced Video Coding
Duration : 1h 41mn
Bit rate : 1 683 Kbps
Width : 1 920 pixels
Height : 804 pixels
Display aspect ratio : 2.40:1
Frame rate mode : Constant
Frame rate : 25.000 fps
Color space : YUV
Chroma subsampling : 4:2:0
Bit depth : 8 bits
Scan type : Progressive
Bits/(Pixel*Frame) : 0.044
Stream size : 1.19 GiB (93%)
Writing library : x264 core 155 r2901 7d0ff22
Color primaries : BT.709-5, BT.1361, IEC 61966-2-4, SMPTE RP177
Transfer characteristics : BT.709-5, BT.1361
Matrix coefficients : BT.709-5, BT.1361, IEC 61966-2-4 709, SMPTE RP177
Audio
ID : 2
Format : AAC
Format/Info : Advanced Audio Codec
Format profile : LC
Codec ID : 40
Duration : 1h 41mn
Bit rate mode : Constant
Bit rate : 128 Kbps
Channel(s) : 2 channels
Channel positions : Front: L R
Sampling rate : 44.1 KHz
Compression mode : Lossy
Delay relative to video : -512ms
Stream size : 93.1 MiB (7%)
Language : English
-
.torrent yuklash

Yuqori tezlikda va bepul ko‘chirish!

Qanday yuklab olinadi? · Torrent nima o‘zi? · Reyting va cheklovlar



So‘ngi marta tahrirlandi: Gr@nd (2019-04-06 14:33), Jami tahrirlangan 1 marta
Profil ShX

Lock

Jins:
Yigit
Staj:
8 oy 8 kun
Xabarlar:
41

Qayerdan: Namangan

Taqiq:

BDRip ????

Mavzu yaratish 06-Apr-2019 09:35 (1 soat 11 daqiqa o‘tgach)

Iqitibos

Profil ShX

behaking

Jins:
Yigit
Staj:
10 oy 30 kun
Xabarlar:
7
Taqiq:

!!!!


So‘ngi marta tahrirlandi: behaking (2019-04-08 23:20), Jami tahrirlangan 1 marta

Mavzu yaratish 06-Apr-2019 21:34 (11 soat o‘tgach)

Iqitibos

Profil ShX

Topik 2019 yil filmlari (Premyeralar) forumidan 2002 - 2018 yil filmlari ga ko‘chirildi
MRLG

Mavzu yaratish 07-Apr-2019 14:29 (16 soat o‘tgach)

Xabarlarni ko‘rsatish:    

Hozirgi vaqt: 17-Iyun 18:38

Vaqtlar farqi: UTC + 5



Siz mavzu yaratishingiz mumkin emas
Siz xabarlarga javob qaytarishingiz mumkin emas
Siz o‘z xabarlaringizni tahrirlashingiz mumkin emas
Siz o‘z xabarlaringizni o‘chirishingiz mumkin emas
Siz so‘rovlarda ovoz berishingiz mumkin emas
Siz xabalarga fayllarni biriktirishingiz mumkin emas
Siz fayllarni ko‘chirishingiz mumkin emas