˂
˃
Tarqatmalar statistikasi
Ko‘chirmoqdaman: [ 9 ]
Ko‘chirib bo‘ldim: [ 17 ]
 
     
 
 

dilshod6663 ®

Jins:
Ko‘rsatilmagan
Staj:
1 yil 6 oy
Xabarlar:
78
Taqiq:

Xitoylik Savdogar / Китайский продавец Chiqarilgan yil: 2017
Mamlakat: Xitoy
Janr: Jangari, Sarguzasht
Vaqti: 01:50:14
Tarjima #1: Ko'p ovozli professional tarjima - [favvora studiyasi MY5]
Tarjima #2: Rus tilida ko'p ovozli (sinema us)
Tarjima #3: Original [Ingliz tilida]
Rejisyor: Tan Bing
Rollarda: Etan Li, Mayk Tayson, Janike Askevold, Li Ay, Erik Ebony, Stiven
Seagal, Zijian Vang, Mark Gudman, Shari Cheng, Entoni Gardard, Randall Louell
Tavsif: Filmda Shimoliy Afrikaga o'z kompaniyasidan ketadigan yosh Xitoyning IT-muhandisi haqida hikoya qilinadi,
mamlakatning mineral resurslarini boshqaradigan raqobatni qozonish. Biroq uning yo'lida frantsiyalik josus Maykl va yolg'iz Lauder bor.
Sifat: WEB-DLRip
Format: MKV
Video: XviD, 1500 Kbit / s, 720x304
Audio: uzbekcha (mp3, 2 ch, stereo 128 Kbps)
Audio: ruscha (AC3, 2 ch, 192 Kbps)
Audio: Ingliz tili (AC3, 2 ch, 192 Kbps)

Media info ma'limoti:

General
Unique ID : 22417216441674604474350237178967502355 (0x10DD661A79B633E57186B9368A262E13)
Complete name : G:\kino\china salisman\China Salesman 2017.mkv
Format : Matroska
Format version : Version 4
File size : 1.55 GiB
Duration : 1 h 50 min
Overall bit rate : 2 012 kb/s
Encoded date : UTC 2019-04-13 16:58:50
Writing application : mkvmerge v25.0.0 ('Prog Noir') 64-bit
Writing library : libebml v1.3.6 + libmatroska v1.4.9
Video
ID : 1
Format : MPEG-4 Visual
Format profile : Advanced Simple@L5
Format settings : BVOP2 / Custom Matrix
Format settings, BVOP : 2
Format settings, QPel : No
Format settings, GMC : No warppoints
Format settings, Matrix : Custom
Codec ID : V_MS/VFW/FOURCC / XVID
Codec ID/Hint : XviD
Duration : 1 h 50 min
Bit rate : 1 500 kb/s
Width : 720 pixels
Height : 304 pixels
Display aspect ratio : 2.35:1
Frame rate mode : Constant
Frame rate : 24.000 FPS
Color space : YUV
Chroma subsampling : 4:2:0
Bit depth : 8 bits
Scan type : Progressive
Compression mode : Lossy
Bits/(Pixel*Frame) : 0.285
Stream size : 1.15 GiB (74%)
Writing library : XviD 65
Default : Yes
Forced : No
Audio #1
ID : 2
Format : AC-3
Format/Info : Audio Coding 3
Commercial name : Dolby Digital
Codec ID : A_AC3
Duration : 1 h 50 min
Bit rate mode : Constant
Bit rate : 192 kb/s
Channel(s) : 2 channels
Channel layout : L R
Sampling rate : 48.0 kHz
Frame rate : 31.250 FPS (1536 SPF)
Bit depth : 16 bits
Compression mode : Lossy
Stream size : 151 MiB (10%)
Service kind : Complete Main
Default : Yes
Forced : No
Audio #2
ID : 3
Format : AC-3
Format/Info : Audio Coding 3
Commercial name : Dolby Digital
Codec ID : A_AC3
Duration : 1 h 50 min
Bit rate mode : Constant
Bit rate : 192 kb/s
Channel(s) : 2 channels
Channel layout : L R
Sampling rate : 48.0 kHz
Frame rate : 31.250 FPS (1536 SPF)
Bit depth : 16 bits
Compression mode : Lossy
Stream size : 151 MiB (10%)
Service kind : Complete Main
Default : No
Forced : No
Audio #3
ID : 4
Format : MPEG Audio
Format version : Version 1
Format profile : Layer 3
Format settings : Joint stereo
Codec ID : A_MPEG/L3
Codec ID/Hint : MP3
Duration : 1 h 50 min
Bit rate mode : Constant
Bit rate : 128 kb/s
Channel(s) : 2 channels
Sampling rate : 48.0 kHz
Frame rate : 41.667 FPS (1152 SPF)
Compression mode : Lossy
Stream size : 101 MiB (6%)
Title : uzbek tili favvora studiyasi
Language : Uzbek
Default : No
Forced : No
.torrent yuklash

Yuqori tezlikda va bepul ko‘chirish!

Qanday yuklab olinadi? · Torrent nima o‘zi? · Reyting va cheklovlar

Profil ShX

dilshod6663 ®

Jins:
Ko‘rsatilmagan
Staj:
1 yil 6 oy
Xabarlar:
78
Taqiq:

AxeL lentaga ham utkazivoring

Mavzu yaratish 13-Apr-2019 23:06 (27 daqiqa o‘tgach)

Iqitibos

Profil ShX

AxeL

Jins:
Yigit
Staj:
1 yil 2 oy
Xabarlar:
740

Qayerdan: Gronland, Norway

Taqiq:

dilshod6663, bunaqa dostup menda yo'q, adminga murojaat qiling.

Mavzu yaratish 13-Apr-2019 23:11 (4 daqiqa o‘tgach)

Iqitibos

Profil ShX

XVII

Jins:
Yigit
Staj:
1 yil 2 oy
Xabarlar:
140

Qayerdan: Surkhandarya

Taqiq:

dilshod6663, trekerni rivojlantirishda o`z xissangizni qushayotganiz uchun katta rahmat!

Mavzu yaratish 13-Apr-2019 23:24 (12 daqiqa o‘tgach)

Iqitibos

Profil ShX

dilshod6663 ®

Jins:
Ko‘rsatilmagan
Staj:
1 yil 6 oy
Xabarlar:
78
Taqiq:

7991dilshod6663, trekerni rivojlantirishda o`z xissangizni qushayotganiz uchun katta rahmat!
XVII Arzimaydi nafaqat men trekkir uchun kupchilik jon kuydiradi buning uchun ularning xissasi kuproq dib uylayman

Mavzu yaratish 14-Apr-2019 00:16 (52 daqiqa o‘tgach)

Iqitibos

Profil ShX
Xabarlarni ko‘rsatish:    

Hozirgi vaqt: 17-Iyun 18:45

Vaqtlar farqi: UTC + 5



Siz mavzu yaratishingiz mumkin emas
Siz xabarlarga javob qaytarishingiz mumkin emas
Siz o‘z xabarlaringizni tahrirlashingiz mumkin emas
Siz o‘z xabarlaringizni o‘chirishingiz mumkin emas
Siz so‘rovlarda ovoz berishingiz mumkin emas
Siz xabalarga fayllarni biriktirishingiz mumkin emas
Siz fayllarni ko‘chirishingiz mumkin emas