˂
˃
Tarqatmalar statistikasi
Ko‘chirmoqdaman: [ 4 ]
Ko‘chirib bo‘ldim: [ 20 ]
 
     
 
 

logan7272 ®

Jins:
Yigit
Staj:
1 yil
Xabarlar:
64

Qayerdan: Namangan

Taqiq:

ABDULLAJON -Chiqarilgan yil: 1991
Davlat: SSSR
Janr: Oilaviy, fantastika, komediya
Davomiyligi: 01:26:41
Tarjima: Original O'zbekcha
Subtitrlar: Ruscha-Rejisyor: Zulfiqor Musoqov-Rollarda: To`ti Yusupov, Rajab Adashev, Shuhrat Qayumov, Mirxosil Oripov, Tuxiy Aripov, Javlon Hamrayev, Xojiakbar Nurmatov, Jamol Xoshimov, Sergey Dreyden, Galina Lukovnikova-Mamedova, Abror Tursunov, Zokir Muminov,Yulduz Xamidova, Ulmas Yusupov.-Film haqida: "Kommunizm" kolxoziga tashrif buyuradigan o`zga sayyoralik mehmonga haqidagi markazdan telegramma keladi, uni markazdan uning qo'nish mumkin bo'lgan joy haqida xabar qilinadi. Bozorboy, begonani topdi, unga Abdullajon ismini berdi va uni uyiga olib keldi ...
-Sifat: DVDRip-AVC
Format: MKV
Video: AVC, 720x540, 2100 kbps, 30,303 fps
Audio: AC3, 48 kHz, 192 kbps, 2 ch-

Media Info

General
Unique ID : 90816114385474124477378791722770363541 (0x44528C233E9650951518AF0CDC69F495)
Complete name :Абдулладжан(1991.DVDRip-AVC)\Абдулладжан (1991.DVDRip-AVC).mkv
Format : Matroska
Format version : Version 4 / Version 2
File size : 1.39 GiB
Duration : 1 h 26 min
Overall bit rate : 2 291 kb/s
Writing application : Lavf57.25.100
Writing library : Lavf57.25.100 / Lavf57.25.100
Video
ID : 1
Format : AVC
Format/Info : Advanced Video Codec
Format profile : High@L4.1
Format settings, CABAC : Yes
Format settings, ReFrames : 8 frames
Codec ID : V_MPEG4/ISO/AVC
Duration : 1 h 26 min
Bit rate : 2 100 kb/s
Width : 720 pixels
Height : 540 pixels
Display aspect ratio : 4:3
Frame rate mode : Constant
Frame rate : 30.303 FPS
Original frame rate : 29.970 (30000/1001) FPS
Color space : YUV
Chroma subsampling : 4:2:0
Bit depth : 8 bits
Scan type : Progressive
Bits/(Pixel*Frame) : 0.178
Stream size : 1.24 GiB (90%)
Writing library : x264 core 148 r2708 86b7198
Encoding settings : cabac=1 / ref=8 / deblock=1:-1:-1 / analyse=0x3:0x133 / me=umh / subme=11 / psy=1 / psy_rd=1.00:0.00 / mixed_ref=1 / me_range=32 / chroma_me=1 / trellis=2 / 8x8dct=1 / cqm=0 / deadzone=21,11 / fast_pskip=1 / chroma_qp_offset=-2 / threads=6 / lookahead_threads=1 / sliced_threads=0 / nr=0 / decimate=1 / interlaced=0 / bluray_compat=0 / constrained_intra=0 / bframes=16 / b_pyramid=2 / b_adapt=2 / b_bias=0 / direct=3 / weightb=1 / open_gop=0 / weightp=2 / keyint=300 / keyint_min=30 / scenecut=40 / intra_refresh=0 / rc_lookahead=40 / rc=2pass / mbtree=1 / bitrate=2100 / ratetol=1.0 / qcomp=0.60 / qpmin=0 / qpmax=69 / qpstep=4 / cplxblur=20.0 / qblur=0.5 / vbv_maxrate=50000 / vbv_bufsize=62500 / nal_hrd=none / filler=0 / ip_ratio=1.40 / aq=1:1.00
Default : Yes
Forced : No
Color range : Limited
Color primaries : BT.601 NTSC
Transfer characteristics : BT.709
Matrix coefficients : BT.601
DURATION : 01:26:41.934000000
Audio
ID : 2
Format : AC-3
Format/Info : Audio Coding 3
Mode extension : CM (complete main)
Format settings, Endianness : Big
Codec ID : A_AC3
Duration : 1 h 26 min
Bit rate mode : Constant
Bit rate : 192 kb/s
Channel(s) : 2 channels
Channel positions : Front: L R
Sampling rate : 48.0 kHz
Frame rate : 31.250 FPS (1536 spf)
Bit depth : 16 bits
Compression mode : Lossy
Delay relative to video : -5 ms
Stream size : 119 MiB (8%)
Default : Yes
Forced : No
DURATION : 01:26:41.630000000
LAVHALAR
.torrent yuklash

Yuqori tezlikda va bepul ko‘chirish!

Qanday yuklab olinadi? · Torrent nima o‘zi? · Reyting va cheklovlar

Profil ShX

logan7272 ®

Jins:
Yigit
Staj:
1 yil
Xabarlar:
64

Qayerdan: Namangan

Taqiq:

Mavzu yaratish 14-Apr-2019 14:42 (33 daqiqa o‘tgach)

Iqitibos

Profil ShX
Xabarlarni ko‘rsatish:    

Hozirgi vaqt: 18-Apr 19:29

Vaqtlar farqi: UTC + 5



Siz mavzu yaratishingiz mumkin emas
Siz xabarlarga javob qaytarishingiz mumkin emas
Siz o‘z xabarlaringizni tahrirlashingiz mumkin emas
Siz o‘z xabarlaringizni o‘chirishingiz mumkin emas
Siz so‘rovlarda ovoz berishingiz mumkin emas
Siz xabalarga fayllarni biriktirishingiz mumkin emas
Siz fayllarni ko‘chirishingiz mumkin emas