˂
˃
Tarqatmalar statistikasi
Ko‘chiraman: [ 1 ]
Ko‘chirmoqdaman: [ 6 ]
Ko‘chirib bo‘ldim: [ 23 ]
 
     
 
 

dilshod6663 ®

Jins:
Ko‘rsatilmagan
Staj:
1 yil 6 oy
Xabarlar:
78
Taqiq:

Thor: Ragnarok / Тор: Рагнарёк Chiqarilgan yil: 2017
Davlat: AQSh
Janr: hayoliy, jangari, komediya, sarguzasht
Vaqti: 02:10:30
Tarjima #1: Ko'p ovozli professional tarjima - [favvora studiyasi MY5]
Tarjima #2: Rus tilida professional (Tuliq tarjima i-Tunes)
Tarjima #3: Original [Ingliz tilida]
Rejisyor: Taika Uayiti
ROLLARDA:
Chris Xemsvort, Tom Hiddleston, Kate Blanchett, Idris Elba, Jeff Goldblum, Tessa Tompson, Karl Urban, Mark Ruffalo, Entoni Xopkins, Benedict Kumberbatch
TAVSIF:
Infinityning Toshlari uchun sirli dushmanni ovlashda Asgardga qaytib, Thor Asgard taxtini egallagan ukasi Lokining harakati, eng dahshatli voqea - Ragnarokning yondashuviga olib keldi. Afsonaga ko'ra, bu so'nggi Asgard jangi, buning natijasi butunlay yo'q qilinishi bo'ladi. Ushbu hodisani oldini olish uchun Tora Tavrotdagi yolg'onchining yordamiga murojaat qilishi kerak bo'ladi - Hulk. Birgalikda ular eng yomon ahvolga tushadilar barcha to'qqiz olamning dushmani - bu maqsadni amalga oshirish uchun olovli jin Surtur Ragnarokning bashorati va to'qqizta olamning yo'q qilinishi.
Sifat: BDRip 1080p HEVC 10 bit
Format: MKV
Video: HVC1, 1920x808, 23.976fps, 2.086 Kbps
Audio #1: MP3 2 ch 44.1 kHz stereo 256 Kbp | Uzbek tilida
Audio # 2: AC-3, 48000 Gts, 6 g, 384 Kbp | Rus tilida
Audio # 3: HE-AAC / LC, 48000 Hz, 8 ch, 300 Kbps | Ingliz tili

Media Info ma'limotlari:

General
Unique ID : 250910054950067416668814801232673779722 (0xBCC384D13B3E9975B41686859402300A)
Complete name : G:\kino\Tor rignaryok\Тор. Рагнарек.mkv
Format : Matroska
Format version : Version 4
File size : 2.76 GiB
Duration : 2 h 10 min
Overall bit rate : 3 025 kb/s
Movie name : Thor.Ragnarok.2017.1080p.10bit.HEVC | AllTor.Me / Thor: Ragnarok
Description : Edited by legolas_1991 for AllTor.Me
Encoded date : UTC 2019-04-14 17:55:28
Writing application : mkvmerge v25.0.0 ('Prog Noir') 64-bit
Writing library : libebml v1.3.6 + libmatroska v1.4.9
Copyright : AllTor.Me
Attachments : poster | AllTor.Me.png
ARTIST : Taika Waititi
Url : https://alltor.me
Video
ID : 1
Format : HEVC
Format/Info : High Efficiency Video Coding
Format profile : Main 10@L4@Main
Codec ID : V_MPEGH/ISO/HEVC
Duration : 2 h 10 min
Bit rate : 2 086 kb/s
Width : 1 920 pixels
Height : 808 pixels
Display aspect ratio : 2.40:1
Frame rate mode : Constant
Frame rate : 23.976 (24000/1001) FPS
Color space : YUV
Chroma subsampling : 4:2:0
Bit depth : 10 bits
Bits/(Pixel*Frame) : 0.056
Stream size : 1.90 GiB (69%)
Default : Yes
Forced : No
Audio #1
ID : 2
Format : AAC LC SBR
Format/Info : Advanced Audio Codec Low Complexity with Spectral Band Replication
Commercial name : HE-AAC
Format settings : Explicit
Codec ID : A_AAC-2
Duration : 2 h 10 min
Bit rate : 300 kb/s
Channel(s) : 7 channels
Channel(s)_Original : 8 channels
Channel layout : C L R Ls Rs Lb Rb LFE
Sampling rate : 48.0 kHz
Frame rate : 23.438 FPS (2048 SPF)
Compression mode : Lossy
Delay relative to video : 31 ms
Stream size : 280 MiB (10%)
Title : ENG
Language : English
Default : No
Forced : No
Audio #2
ID : 10
Format : AC-3
Format/Info : Audio Coding 3
Commercial name : Dolby Digital
Codec ID : A_AC3
Duration : 2 h 10 min
Bit rate mode : Constant
Bit rate : 384 kb/s
Channel(s) : 6 channels
Channel layout : L R C LFE Ls Rs
Sampling rate : 48.0 kHz
Frame rate : 31.250 FPS (1536 SPF)
Bit depth : 16 bits
Compression mode : Lossy
Stream size : 359 MiB (13%)
Title : DUB | iTunes | AllTor.Me
Language : Russian
Service kind : Complete Main
Default : Yes
Forced : Yes
Audio #3
ID : 11
Format : MPEG Audio
Format version : Version 1
Format profile : Layer 3
Format settings : Joint stereo
Codec ID : A_MPEG/L3
Codec ID/Hint : MP3
Duration : 2 h 10 min
Bit rate mode : Constant
Bit rate : 256 kb/s
Channel(s) : 2 channels
Sampling rate : 44.1 kHz
Frame rate : 38.281 FPS (1152 SPF)
Compression mode : Lossy
Stream size : 239 MiB (8%)
Title : Uzbek tili Favvora Studiyasi
Language : Uzbek
Default : No
Forced : No
Text #1
ID : 3
Format : UTF-8
Codec ID : S_TEXT/UTF8
Codec ID/Info : UTF-8 Plain Text
Duration : 2 h 10 min
Bit rate : 51 b/s
Count of elements : 1760
Stream size : 48.7 KiB (0%)
Title : ENG
Language : English
Default : No
Forced : No
Text #2
ID : 4
Format : UTF-8
Codec ID : S_TEXT/UTF8
Codec ID/Info : UTF-8 Plain Text
Duration : 2 h 10 min
Bit rate : 57 b/s
Count of elements : 2080
Stream size : 55.2 KiB (0%)
Title : ENG SDH
Language : English
Default : No
Forced : No
Text #3
ID : 5
Format : UTF-8
Codec ID : S_TEXT/UTF8
Codec ID/Info : UTF-8 Plain Text
Duration : 1 h 56 min
Bit rate : 0 b/s
Count of elements : 4
Stream size : 216 Bytes (0%)
Title : RUS | Forced
Language : Russian
Default : Yes
Forced : Yes
Text #4
ID : 6
Format : UTF-8
Codec ID : S_TEXT/UTF8
Codec ID/Info : UTF-8 Plain Text
Duration : 2 h 9 min
Bit rate : 77 b/s
Count of elements : 1576
Stream size : 73.5 KiB (0%)
Title : RUS
Language : Russian
Default : No
Forced : No
Text #5
ID : 7
Format : UTF-8
Codec ID : S_TEXT/UTF8
Codec ID/Info : UTF-8 Plain Text
Duration : 2 h 10 min
Bit rate : 87 b/s
Count of elements : 2092
Stream size : 83.7 KiB (0%)
Title : RUS | FULL
Language : Russian
Default : No
Forced : No
Text #6
ID : 8
Format : UTF-8
Codec ID : S_TEXT/UTF8
Codec ID/Info : UTF-8 Plain Text
Duration : 2 h 9 min
Bit rate : 49 b/s
Count of elements : 1564
Stream size : 47.1 KiB (0%)
Title : ENG
Language : English
Default : No
Forced : No
Text #7
ID : 9
Format : UTF-8
Codec ID : S_TEXT/UTF8
Codec ID/Info : UTF-8 Plain Text
Duration : 2 h 10 min
Bit rate : 57 b/s
Count of elements : 2081
Stream size : 55.1 KiB (0%)
Title : ENG
Language : English
Default : No
Forced : No
.torrent yuklash

Yuqori tezlikda va bepul ko‘chirish!

Qanday yuklab olinadi? · Torrent nima o‘zi? · Reyting va cheklovlar

Profil ShX

dilshod6663 ®

Jins:
Ko‘rsatilmagan
Staj:
1 yil 6 oy
Xabarlar:
78
Taqiq:

AxeL Biron joyida kamchilik bulsa tug'irlavoring

Mavzu yaratish 15-Apr-2019 00:36 (1 soat 8 daqiqa o‘tgach)

Iqitibos

Profil ShX

AxeL

Jins:
Yigit
Staj:
1 yil 2 oy
Xabarlar:
740

Qayerdan: Gronland, Norway

Taqiq:

7997
Tarjima #1: MP3 2 ch 44.1 kHz stereo 256 Kbp | Uzbek tilida
Audio # 2: AC-3, 48000 Gts, 6 g, 384 Kbp | Rus tilida
Ovoz # 3: HE-AAC / LC, 48000 Hz, 8 ch, 300 Kbps | Ingliz tili
Hammasini birgalikda Audio ko'rinishida yozing

Mavzu yaratish 15-Apr-2019 00:37 (21 soniya o‘tgach)

Iqitibos

Profil ShX

akbarkhan

Jins:
Yigit
Staj:
4 oy 23 kun
Xabarlar:
6

Qayerdan: Guliston City

Taqiq:

tezlik juda pas ekan

Mavzu yaratish 17-Apr-2019 20:27 (2 kun 19 soat o‘tgach)

Iqitibos

Profil ShX

dilshod6663 ®

Jins:
Ko‘rsatilmagan
Staj:
1 yil 6 oy
Xabarlar:
78
Taqiq:

8008tezlik juda pas ekan
akbarkhan men xozir 4 ta kinoni tarqatiyapman shu sababdan tezlik 4 ga bulinadi. ozroq kutsayiz xammasi joyiga tushib ketadi.

Mavzu yaratish 18-Apr-2019 00:22 (3 soat o‘tgach)

Iqitibos

Profil ShX

CIIIA

Jins:
Ko‘rsatilmagan
Staj:
1 yil 4 oy
Xabarlar:
4
Taqiq:

akbarkhan, ozi skorostingiz nechi?) mengayam skorost berib turinglar

Mavzu yaratish 27-Apr-2019 10:26 (9 kun o‘tgach)

Iqitibos

Profil ShX
Xabarlarni ko‘rsatish:    

Hozirgi vaqt: 17-Iyun 18:16

Vaqtlar farqi: UTC + 5



Siz mavzu yaratishingiz mumkin emas
Siz xabarlarga javob qaytarishingiz mumkin emas
Siz o‘z xabarlaringizni tahrirlashingiz mumkin emas
Siz o‘z xabarlaringizni o‘chirishingiz mumkin emas
Siz so‘rovlarda ovoz berishingiz mumkin emas
Siz xabalarga fayllarni biriktirishingiz mumkin emas
Siz fayllarni ko‘chirishingiz mumkin emas