˂
˃
 

dilshod6663 ®

Jins:
Ko‘rsatilmagan
Staj:
1 yil 6 oy
Xabarlar:
78
Taqiq:

Haloskor / Король вне закона / Outlaw King Chiqarilgan yil: 2018
Davlat: Buyuk Britaniya, AQSH.
Janr: Jangari, drama, biografiya, tarix
Vaqti: 02:01:38
Tarjima#1: Professional (kinoteatr kanali) uzbek tili
Tarjima#2: Professional (to'liq tarjima i-tunes) rus tili
Rejissor: Devid Makkenzi / David Mackenzie
Rollarda: Kris Payn, Stiven Dilleyn, Rebecca Robin, Billi Xoul, Pol Bler, Sem Spruell, Djonatan Fillips, Ben Klifford, Djemi MakLaxlan, Dankan Lakrua
Tavsif: Buyuk Shotlandiya monarxlaridan biri bo'lgan Robert Brucening hikoyasi, Angliyaga qarshi mustaqillik uchun kurashning boshlang'ich davrida mamlakat mudofaasini tashkil qilgan.
Sifat: WEB-DLRip
Format: MKV
Video: 720x304 (2.37: 1), 24.000 fps, XviD qurilishi 67 ~ 1311 kbps avg, 0.25 bit / piksel
Audio # 1: 44.1 kHz AAC LC 43.066 FPS (1024 SPF) ~ 132 kb/s. uzbek tili
Audio # 2: 48 kHz, AC3 Dolby Digital, 3/2 (L, C, R, L, R) + LFE ch, ~ 384 kbps. rus tili

Media info ma'lumoti:

General
Unique ID : 83887841643596241886129669500148952564 (0x3F1C35EB22D552C11021615CE34CADF4)
Complete name : G:\kino\Korol`_vne_zakona_2018_WEB-DLRip_by_Dalemake\Haloskor (Король вне закона).mkv
Format : Matroska
Format version : Version 4
File size : 1.55 GiB
Duration : 2 h 1 min
Overall bit rate : 1 825 kb/s
Encoded date : UTC 2019-04-15 09:52:03
Writing application : mkvmerge v25.0.0 ('Prog Noir') 64-bit
Writing library : libebml v1.3.6 + libmatroska v1.4.9
Video
ID : 1
Format : MPEG-4 Visual
Format profile : Advanced Simple@L5
Format settings : BVOP1 / Custom Matrix
Format settings, BVOP : 1
Format settings, QPel : No
Format settings, GMC : No warppoints
Format settings, Matrix : Custom
Codec ID : V_MS/VFW/FOURCC / XVID
Codec ID/Hint : XviD
Duration : 2 h 1 min
Bit rate : 1 311 kb/s
Width : 720 pixels
Height : 304 pixels
Display aspect ratio : 2.35:1
Frame rate mode : Constant
Frame rate : 24.000 FPS
Color space : YUV
Chroma subsampling : 4:2:0
Bit depth : 8 bits
Scan type : Progressive
Compression mode : Lossy
Bits/(Pixel*Frame) : 0.250
Stream size : 1.11 GiB (72%)
Writing library : XviD 67
Default : Yes
Forced : No
Audio #1
ID : 2
Format : AC-3
Format/Info : Audio Coding 3
Commercial name : Dolby Digital
Codec ID : A_AC3
Duration : 2 h 1 min
Bit rate mode : Constant
Bit rate : 384 kb/s
Channel(s) : 6 channels
Channel layout : L R C LFE Ls Rs
Sampling rate : 48.0 kHz
Frame rate : 31.250 FPS (1536 SPF)
Bit depth : 16 bits
Compression mode : Lossy
Stream size : 334 MiB (21%)
Service kind : Complete Main
Default : Yes
Forced : No
Audio #2
ID : 3
Format : MPEG Audio
Format version : Version 1
Format profile : Layer 3
Format settings : Joint stereo / MS Stereo
Codec ID : A_MPEG/L3
Codec ID/Hint : MP3
Duration : 2 h 1 min
Bit rate mode : Constant
Bit rate : 128 kb/s
Channel(s) : 2 channels
Sampling rate : 48.0 kHz
Frame rate : 41.667 FPS (1152 SPF)
Compression mode : Lossy
Stream size : 111 MiB (7%)
Title : Uzbek tili kinoteatr telikanali
Language : Uzbek
Default : No
Forced : No
.torrent yuklash

Yuqori tezlikda va bepul ko‘chirish!

Qanday yuklab olinadi? · Torrent nima o‘zi? · Reyting va cheklovlar

Profil ShX
Xabarlarni ko‘rsatish:    

Hozirgi vaqt: 17-Iyun 17:48

Vaqtlar farqi: UTC + 5



Siz mavzu yaratishingiz mumkin emas
Siz xabarlarga javob qaytarishingiz mumkin emas
Siz o‘z xabarlaringizni tahrirlashingiz mumkin emas
Siz o‘z xabarlaringizni o‘chirishingiz mumkin emas
Siz so‘rovlarda ovoz berishingiz mumkin emas
Siz xabalarga fayllarni biriktirishingiz mumkin emas
Siz fayllarni ko‘chirishingiz mumkin emas