˂
˃
Tarqatmalar statistikasi
Ko‘chirmoqdaman: [ 8 ]
Ko‘chirib bo‘ldim: [ 38 ]
 
     
 
 

dilshod6663 ®

Jins:
Ko‘rsatilmagan
Staj:
1 yil 7 oy
Xabarlar:
78
Taqiq:

Shaxsiy urush / Частная война Chiqarilgan yil: 2018
Davlat: Buyuk Britaniya,AQSh
Janr: drama, harbiy, biografiya
Vaqti: 01:50:35
Tarjima 1:Professional Ko'p ovozli uzbek tili (Favvora studiyasi)
Tarjima 2: Professional Ko'p ovozli rus tili (iTunes)
Rejissor: Matt Heineman / Metyu Heineman
Rollarda:
Rozamund Pike, Jamie Dornan, Stanley Tucci, Tom Hollander, Faye Marsay,
Nikki Amuka-Qush, Greg Wise, Alexandra Moen, Corey Jonson, Amanda Drew
Tavsif:
Qo'rqoq Meri Colvin - bizning davrimizning eng mashhur urush muxbiri.
U Martini, London elitasi va harbiy mojaro o'rtasida diktatorlarning qarama-qarshiligi bilan tuyg'usi bir xil.
U juda ko'p sigaret ichadi, spirtli ichimliklarga qaram va har doim aloqalar haqida qayg'urmaydi.
Ammo haqiqatga guvoh bo'lish istagi uni qayta-qayta jahon bo'ylab rivojlangan harbiy mojarolarga olib keladi.
Bir necha bor ko'zlarida o'limni to'g'ri ko'rgan. Uning hayoti tornado, uning aqli mayin maydon, uning go'zal tanasi yarador.
Adolat uchun xuddi shu jangchi bilan birga suriyalik fotosuratchi Pol Conroy
Suriya qurolli kuchlarida o'zlarining kareralarida eng xavfli vazifani belgilab oldi.
Sifat: HDRip
Format: MKV
Video: XviD, 1493 Kb / s, 720x304
Audio #1: MP3, 128 kb/s , 44.1 kHz uzbek tili
Audio #2: AC3, 384 Kb / s, rus tili

Media Info ma'lumoti:

General
Unique ID : 310680158641822702717866103962332893614 (0xE9BAD272E2E6B7C137DDA0C2B13D11AE)
Complete name : G:\kino\shaxsiy urush\Shaxsiy Urush uzbek tilida 2018.mkv
Format : Matroska
Format version : Version 4
File size : 1.55 GiB
Duration : 1 h 50 min
Overall bit rate : 2 002 kb/s
Encoded date : UTC 2019-04-17 18:38:54
Writing application : mkvmerge v25.0.0 ('Prog Noir') 64-bit
Writing library : libebml v1.3.6 + libmatroska v1.4.9
Video
ID : 1
Format : MPEG-4 Visual
Format profile : Advanced Simple@L5
Format settings : BVOP1
Format settings, BVOP : 1
Format settings, QPel : No
Format settings, GMC : No warppoints
Format settings, Matrix : Default (H.263)
Codec ID : V_MS/VFW/FOURCC / XVID
Codec ID/Hint : XviD
Duration : 1 h 50 min
Bit rate : 1 489 kb/s
Width : 720 pixels
Height : 304 pixels
Display aspect ratio : 2.35:1
Frame rate mode : Constant
Frame rate : 23.976 (24000/1001) FPS
Color space : YUV
Chroma subsampling : 4:2:0
Bit depth : 8 bits
Scan type : Progressive
Compression mode : Lossy
Bits/(Pixel*Frame) : 0.284
Stream size : 1.15 GiB (74%)
Writing library : XviD 67
Default : Yes
Forced : No
Audio #1
ID : 2
Format : AC-3
Format/Info : Audio Coding 3
Commercial name : Dolby Digital
Codec ID : A_AC3
Duration : 1 h 50 min
Bit rate mode : Constant
Bit rate : 384 kb/s
Channel(s) : 6 channels
Channel layout : L R C LFE Ls Rs
Sampling rate : 48.0 kHz
Frame rate : 31.250 FPS (1536 SPF)
Bit depth : 16 bits
Compression mode : Lossy
Stream size : 304 MiB (19%)
Service kind : Complete Main
Default : Yes
Forced : No
Audio #2
ID : 3
Format : MPEG Audio
Format version : Version 1
Format profile : Layer 3
Format settings : Joint stereo
Codec ID : A_MPEG/L3
Codec ID/Hint : MP3
Duration : 1 h 50 min
Bit rate mode : Constant
Bit rate : 128 kb/s
Channel(s) : 2 channels
Sampling rate : 44.1 kHz
Frame rate : 38.281 FPS (1152 SPF)
Compression mode : Lossy
Stream size : 101 MiB (6%)
Title : uzbek tili favvora studiyasi
Language : Uzbek
Default : No
Forced : No
.torrent yuklash

Yuqori tezlikda va bepul ko‘chirish!

Qanday yuklab olinadi? · Torrent nima o‘zi? · Reyting va cheklovlar

Profil ShX

dilshod6663 ®

Jins:
Ko‘rsatilmagan
Staj:
1 yil 7 oy
Xabarlar:
78
Taqiq:

Nimaga film tekshirilmayapti MRLG bilan axel qani

Mavzu yaratish 18-Apr-2019 08:56 (8 soat o‘tgach)

Iqitibos

Profil ShX
Xabarlarni ko‘rsatish:    

Hozirgi vaqt: 17-Iyul 15:59

Vaqtlar farqi: UTC + 5



Siz mavzu yaratishingiz mumkin emas
Siz xabarlarga javob qaytarishingiz mumkin emas
Siz o‘z xabarlaringizni tahrirlashingiz mumkin emas
Siz o‘z xabarlaringizni o‘chirishingiz mumkin emas
Siz so‘rovlarda ovoz berishingiz mumkin emas
Siz xabalarga fayllarni biriktirishingiz mumkin emas
Siz fayllarni ko‘chirishingiz mumkin emas