˂
˃
Tarqatmalar statistikasi
Ko‘chirmoqdaman: [ 10 ]
Ko‘chirib bo‘ldim: [ 35 ]
 
     
 
 

dilshod6663 ®

Jins:
Ko‘rsatilmagan
Staj:
1 yil 5 oy
Xabarlar:
78
Taqiq:

O'zga Qiyofada | Criminal Chiqarilgan yil: 2016
Davlat: Buyuk Britaniya, AQSh
Janr: hayoliy, Jangari, triller
Vaqti: 01:53:33
Tarjima #1: Professional Ko'p ovozli uzbek tili (Favvora studiyasi)
Tarjima #2: Professional tuliq tarjima rus tili (i-tunes)
Tarjima #3: Original [Ingliz tili]
Rejisyor: Ariel Vromen
ROLLARDA:
Kevin Kastner, Gary Oldman, Tommy Li Jons, Ryan Reynolds, Alice Eve, Gal Gadot,
Jordi Moglia, Maykl Pitt, Amaury Nolasco, Antti Traue, Scott Edkins, Lara Decaro
TAVSIF:
Butunjahon falokatini to'xtatishga urinib ko'rgan so'nggi genetika,
halok bo'lgan Markaziy razvedka boshqarmasi xodimi xotirasi
va qobiliyatini xavfli mahbusning jasadiga joylashtirish uchun ajoyib ish olib bormoqda.
Sifat: HDRip-AVC
Format: Mkv
Video: AVC, 1152x482, 2 773 kb / s 23,976 fps
Audio#1 UZ: MP3, 48000Hz, 2ch, 128 Kbps | Ko'p ovozli
Audio#2 RU: AC3, 48000Hz, 6ch, 384 Kbps | i-tunes
Audio#3 EN: AC3, 48000Hz, 6ch, 448 Kbps | Haqiyqiy

Media info ma'lumotlari:

General
Unique ID : 207798250751235131699234249312729722563 (0x9C547CC30E2E51C77C950FFB1F0E6EC3)
Complete name : G:\kino\O'zga qiyofada\O'zga Qiyofada 2016.mkv
Format : Matroska
Format version : Version 4
File size : 2.96 GiB
Duration : 1 h 53 min
Overall bit rate : 3 734 kb/s
Movie name : Criminal (2016) (Rip by stalkerok)
Encoded date : UTC 2019-04-18 06:44:31
Writing application : mkvmerge v25.0.0 ('Prog Noir') 64-bit
Writing library : libebml v1.3.6 + libmatroska v1.4.9
Video
ID : 1
Format : AVC
Format/Info : Advanced Video Codec
Format profile : High@L4.1
Format settings : CABAC / 13 Ref Frames
Format settings, CABAC : Yes
Format settings, ReFrames : 13 frames
Codec ID : V_MPEG4/ISO/AVC
Duration : 1 h 53 min
Bit rate : 2 773 kb/s
Width : 1 152 pixels
Height : 482 pixels
Display aspect ratio : 2.40:1
Frame rate mode : Constant
Frame rate : 23.976 (24000/1001) FPS
Color space : YUV
Chroma subsampling : 4:2:0
Bit depth : 8 bits
Scan type : Progressive
Bits/(Pixel*Frame) : 0.208
Stream size : 2.20 GiB (74%)
Title : Criminal (2016) (Rip by stalkerok)
Writing library : x264 core 148 r2705+54 9f484c1 t_mod_Custom [8-bit@all X86_64]
Encoding settings : cabac=1 / ref=13 / deblock=1:-3:-2 / analyse=0x3:0x133 / me=umh / subme=10 / psy=1 / fade_compensate=0.00 / psy_rd=1.00:0.00 / mixed_ref=1 / me_range=32 / chroma_me=1 / trellis=2 / 8x8dct=1 / cqm=0 / deadzone=21,11 / fast_pskip=0 / chroma_qp_offset=-2 / threads=12 / lookahead_threads=3 / sliced_threads=0 / nr=0 / decimate=0 / interlaced=0 / bluray_compat=0 / constrained_intra=0 / fgo=0 / bframes=13 / b_pyramid=2 / b_adapt=2 / b_bias=0 / direct=3 / weightb=1 / open_gop=0 / weightp=2 / keyint=240 / keyint_min=23 / scenecut=40 / intra_refresh=0 / rc_lookahead=60 / rc=2pass / mbtree=0 / bitrate=2773 / ratetol=1.0 / qcomp=0.65 / qpmin=0:0:0 / qpmax=69:69:69 / qpstep=4 / cplxblur=20.0 / qblur=0.5 / vbv_maxrate=50000 / vbv_bufsize=62500 / nal_hrd=none / filler=0 / ip_ratio=1.40 / pb_ratio=1.30 / aq=3:0.80 / aq-sensitivity=10.00 / aq-factor=1.00:1.00:1.00 / aq2=0 / aq3=0
Default : Yes
Forced : No
Audio #1
ID : 2
Format : AC-3
Format/Info : Audio Coding 3
Commercial name : Dolby Digital
Codec ID : A_AC3
Duration : 1 h 53 min
Bit rate mode : Constant
Bit rate : 384 kb/s
Channel(s) : 6 channels
Channel layout : L R C LFE Ls Rs
Sampling rate : 48.0 kHz
Frame rate : 31.250 FPS (1536 SPF)
Bit depth : 16 bits
Compression mode : Lossy
Stream size : 312 MiB (10%)
Language : Russian
Service kind : Complete Main
Default : Yes
Forced : No
Audio #2
ID : 3
Format : AC-3
Format/Info : Audio Coding 3
Commercial name : Dolby Digital
Codec ID : A_AC3
Duration : 1 h 53 min
Bit rate mode : Constant
Bit rate : 448 kb/s
Channel(s) : 6 channels
Channel layout : L R C LFE Ls Rs
Sampling rate : 48.0 kHz
Frame rate : 31.250 FPS (1536 SPF)
Bit depth : 16 bits
Compression mode : Lossy
Stream size : 364 MiB (12%)
Language : English
Service kind : Complete Main
Default : No
Forced : No
Audio #3
ID : 6
Format : MPEG Audio
Format version : Version 1
Format profile : Layer 3
Format settings : Joint stereo
Codec ID : A_MPEG/L3
Codec ID/Hint : MP3
Duration : 1 h 53 min
Bit rate mode : Constant
Bit rate : 128 kb/s
Channel(s) : 2 channels
Sampling rate : 48.0 kHz
Frame rate : 41.667 FPS (1152 SPF)
Compression mode : Lossy
Stream size : 104 MiB (3%)
Title : Uzbek tili (Favvora studiyasi)
Language : Uzbek
Default : No
Forced : No
Text #1
ID : 4
Format : UTF-8
Codec ID : S_TEXT/UTF8
Codec ID/Info : UTF-8 Plain Text
Duration : 1 h 43 min
Bit rate : 41 b/s
Count of elements : 1016
Stream size : 31.5 KiB (0%)
Language : English
Default : No
Forced : No
Text #2
ID : 5
Format : UTF-8
Codec ID : S_TEXT/UTF8
Codec ID/Info : UTF-8 Plain Text
Duration : 1 h 43 min
Bit rate : 48 b/s
Count of elements : 1276
Stream size : 37.3 KiB (0%)
Title : SDH
Language : English
Default : No
Forced : No
Menu
00:00:00.000 : en:Chapter 1
00:10:41.264 : en:Chapter 2
00:15:32.264 : en:Chapter 3
00:23:45.339 : en:Chapter 4
00:30:56.561 : en:Chapter 5
00:36:01.367 : en:Chapter 6
00:45:36.315 : en:Chapter 7
00:48:48.507 : en:Chapter 8
00:54:51.454 : en:Chapter 9
01:01:46.244 : en:Chapter 10
01:08:32.608 : en:Chapter 11
01:16:11.608 : en:Chapter 12
01:22:20.143 : en:Chapter 13
01:29:52.011 : en:Chapter 14
01:36:46.091 : en:Chapter 15
01:42:08.497 : en:Chapter 16
.torrent yuklash

Yuqori tezlikda va bepul ko‘chirish!

Qanday yuklab olinadi? · Torrent nima o‘zi? · Reyting va cheklovlar

Profil ShX
Xabarlarni ko‘rsatish:    

Hozirgi vaqt: 24-May 13:46

Vaqtlar farqi: UTC + 5



Siz mavzu yaratishingiz mumkin emas
Siz xabarlarga javob qaytarishingiz mumkin emas
Siz o‘z xabarlaringizni tahrirlashingiz mumkin emas
Siz o‘z xabarlaringizni o‘chirishingiz mumkin emas
Siz so‘rovlarda ovoz berishingiz mumkin emas
Siz xabalarga fayllarni biriktirishingiz mumkin emas
Siz fayllarni ko‘chirishingiz mumkin emas