˂
˃
Tarqatmalar statistikasi
Ko‘chiraman: [ 1 ]
Ko‘chirmoqdaman: [ 6 ]
Ko‘chirib bo‘ldim: [ 24 ]
 
     
 
 

dilshod6663 ®

Jins:
Ko‘rsatilmagan
Staj:
1 yil 7 oy
Xabarlar:
78
Taqiq:

Jodugarlar ovchisi | The Last Witch Hunter Chiqarilgan yil: 2015 yil
Mamlakat: AQSh, Xitoy, Kanada
Janr: Xayoliy, Jangari, sarguzasht
Ajratilgan vaqt: 01: 46: 26
Tarjima 1: Professional Ko'p ovozli uzbek tili (Favvora studiyasi)
Tarjima 2: Professional tuliq tarjima rus tili (i-tunes)
Rejisyor: Bremen Eisner
Rollarda: Вин Дизель, Юли Энгельбрехт, Джозеф Гилган, Элайджа Вуд, Роуз Лесли
Tavsif:
Zamonaviy dunyo ko'pgina sirlarni yashiradi, lekin ularning eng ajablantiradiganlari shundaki, jodugarlar hali ham bizda yashaydi.
Ular dunyoga o'lik zarbani yuborish maqsadi bo'lgan g'ayritabiiy mavjudotlardir.
Urush jodugarlari ovchilari ko'plab asrlar davomida ular bilan jang qilishdi.
Bugungi kunda faqat bitta afsungar ovchi, Calder, bir paytlar qudratli jodugar malikasini o'ldirishga muvaffaq bo'ldi.
Lekin Calder hali malika yuksalib borganini va uning qotilidan qasd olish istaganini bilmaydi ...
Qo'shimcha ma'lumot:
Stsenariy mualliflari: Corey Gudman, Matt Sazama, Burke Sharpless
Prodyuser: Mark Kanton,Vin Diesel, Bernie Goldmann
Byudjet:$ 90,000,000
AQSHda: $ 27,367,660
Dunyoda:$ 80,965,305 = $ 108,332,965
Rossiyada:$ 9 516 417
Sifat: WEB-DLRip
Format: MKV
Video kodek: XviD,720x400,1563 Kbit / s,
Audio UZ1: MP3,2 ch, 48.0 kHz 128 kb/s
Audio RU2: AC3,6 ch, 48.0 kHz 384 kbps

Media info ma'lumotlari:

General
Unique ID : 293880761492553897963464410647473411095 (0xDD1760389BE0F602A8A7728C9D5BD417)
Complete name : G:\kino\Jodugarlar Ovchisi\Jodugarlar Ovchisi.2015..mkv
Format : Matroska
Format version : Version 4
File size : 1.54 GiB
Duration : 1 h 46 min
Overall bit rate : 2 077 kb/s
Encoded date : UTC 2019-04-19 21:53:35
Writing application : mkvmerge v25.0.0 ('Prog Noir') 64-bit
Writing library : libebml v1.3.6 + libmatroska v1.4.9
Video
ID : 1
Format : MPEG-4 Visual
Format profile : Advanced Simple@L5
Format settings : BVOP2
Format settings, BVOP : 2
Format settings, QPel : No
Format settings, GMC : No warppoints
Format settings, Matrix : Default (MPEG)
Codec ID : V_MS/VFW/FOURCC / XVID
Codec ID/Hint : XviD
Duration : 1 h 46 min
Bit rate : 1 563 kb/s
Width : 720 pixels
Height : 400 pixels
Display aspect ratio : 16:9
Frame rate mode : Constant
Frame rate : 24.000 FPS
Color space : YUV
Chroma subsampling : 4:2:0
Bit depth : 8 bits
Scan type : Progressive
Compression mode : Lossy
Bits/(Pixel*Frame) : 0.226
Stream size : 1.16 GiB (75%)
Writing library : XviD 1.2.1 (UTC 2008-12-04)
Default : Yes
Forced : No
Audio #1
ID : 2
Format : AC-3
Format/Info : Audio Coding 3
Commercial name : Dolby Digital
Codec ID : A_AC3
Duration : 1 h 46 min
Bit rate mode : Constant
Bit rate : 384 kb/s
Channel(s) : 6 channels
Channel layout : L R C LFE Ls Rs
Sampling rate : 48.0 kHz
Frame rate : 31.250 FPS (1536 SPF)
Bit depth : 16 bits
Compression mode : Lossy
Stream size : 292 MiB (18%)
Service kind : Complete Main
Default : Yes
Forced : No
Audio #2
ID : 3
Format : MPEG Audio
Format version : Version 1
Format profile : Layer 3
Format settings : Joint stereo / MS Stereo
Codec ID : A_MPEG/L3
Codec ID/Hint : MP3
Duration : 1 h 46 min
Bit rate mode : Constant
Bit rate : 128 kb/s
Channel(s) : 2 channels
Sampling rate : 48.0 kHz
Frame rate : 41.667 FPS (1152 SPF)
Compression mode : Lossy
Stream size : 97.5 MiB (6%)
Title : Uzbek tili Favvora Studiyasi
Language : Uzbek
Default : No
Forced : No
.torrent yuklash

Yuqori tezlikda va bepul ko‘chirish!

Qanday yuklab olinadi? · Torrent nima o‘zi? · Reyting va cheklovlar

Profil ShX

mansur1990

Jins:
Ko‘rsatilmagan
Staj:
3 oy 10 kun
Xabarlar:
1
Taqiq:

[url][/url]

Mavzu yaratish 22-Apr-2019 12:33 (2 kun 9 soat o‘tgach)

Iqitibos

Profil ShX

Dos

Jins:
Ko‘rsatilmagan
Staj:
8 oy 15 kun
Xabarlar:
18
Taqiq:

4% qolgan, razdacha qivorilar

Mavzu yaratish 10-May-2019 12:51 (18 kun o‘tgach)

Iqitibos

Profil ShX
Xabarlarni ko‘rsatish:    

Hozirgi vaqt: 27-Iyun 09:10

Vaqtlar farqi: UTC + 5



Siz mavzu yaratishingiz mumkin emas
Siz xabarlarga javob qaytarishingiz mumkin emas
Siz o‘z xabarlaringizni tahrirlashingiz mumkin emas
Siz o‘z xabarlaringizni o‘chirishingiz mumkin emas
Siz so‘rovlarda ovoz berishingiz mumkin emas
Siz xabalarga fayllarni biriktirishingiz mumkin emas
Siz fayllarni ko‘chirishingiz mumkin emas