˂
˃
Tarqatmalar statistikasi
Ko‘chirmoqdaman: [ 1 ]
Ko‘chirib bo‘ldim: [ 10 ]
 
     
 
 

dilshod6663 ®

Jins:
Ko‘rsatilmagan
Staj:
1 yil 7 oy
Xabarlar:
78
Taqiq:

Kelajak chegarasi / Edge of Tomorrow Chiqarilgan yil: 2014 yil
Mamlakat: AQSh, Avstraliya
Studiya: Warner Bros., Village Roadshow Pictures
Janr: Fantaziya,Jangari
Vaqti: 01:53:29
Tarjima #1: Professional Ko'p ovozli O'zbek tili (Favvora studiyasi)
Tarjima #2: Professional tuliq tarjima rus tili (i-tunes)
Tarjima #3: Original [Ingliz tili]
Rejisyor: Dag Lyman
Rollarda:
Emily Blunt, Bill Paxton / Bill Paxton, Tom Cruise / Tom Cruise, Jonas Armstrong /
Jonas Armstrong, Toni Wei / Tony Way /, Kick Garri / Kick Gurry / Frans Drameh / Franz Drameh /
Dragomir Mrsich / Dragomir Mrsic / Charlotte Riley / Brendan Gleason / Brendan Gleeson
Film haqida:
Yaqin kelajakda begona sayyoramiz Erni bosib oladi. Dunyoda hech qanday qo'shin ularga qarshilik ko'rsatolmaydi.
Buyuk Uilyam Cage jangda vafot etdi, ammo imkonsiz narsa sodir bo'lmoqda - u o'z vaqtida aylanadi.
Vaqti-vaqti bilan u shu kurashga kiradi, urishadi va o'lib qoladi ... yana va yana.
Va har bir takrorlanuvchi urush unga dushmanni qanday engish uchun yaqinlashtiradi.
Sifat: BDRip-AVC
Format: MKV
Video: AVC, 1152x480, 2 792 kb/s, 23,976 fps
Audio # 1: MP3, 2 ch, 256 kb / s | Uzb
Ovoz # 2: AC3, 6 ch, 448 Kbps | RUS
Ovoz # 3: AC3, 6 ch, 448 Kbps | Eng

Media info ma'lumotlari:

General
Unique ID : 192033834581122871019981846363320350068 (0x90785F094AA801505DCFD4865E83F574)
Complete name : G:\kino\Kelajak chegarasi\Kelajak chegarasi.2014.BDRip-AVC.Uz Rus.Eng..mkv
Format : Matroska
Format version : Version 4
File size : 3.13 GiB
Duration : 1 h 53 min
Overall bit rate : 3 947 kb/s
Encoded date : UTC 2019-04-20 07:31:15
Writing application : mkvmerge v25.0.0 ('Prog Noir') 64-bit
Writing library : libebml v1.3.6 + libmatroska v1.4.9
Cover : Yes
Attachments : cover.jpg
Video
ID : 1
Format : AVC
Format/Info : Advanced Video Codec
Format profile : High@L4.1
Format settings : CABAC / 13 Ref Frames
Format settings, CABAC : Yes
Format settings, ReFrames : 13 frames
Codec ID : V_MPEG4/ISO/AVC
Duration : 1 h 53 min
Bit rate : 2 792 kb/s
Width : 1 152 pixels
Height : 480 pixels
Display aspect ratio : 2.40:1
Frame rate mode : Constant
Frame rate : 23.976 (24000/1001) FPS
Color space : YUV
Chroma subsampling : 4:2:0
Bit depth : 8 bits
Scan type : Progressive
Bits/(Pixel*Frame) : 0.211
Stream size : 2.21 GiB (71%)
Title : Edge.of.Tomorrow.2014.BDRip-AVC.by.zOJIOtOi
Writing library : x264 core 142 r2453kMod ea0ca51
Encoding settings : cabac=1 / ref=13 / deblock=1:-2:-1 / analyse=0x3:0x133 / me=umh / subme=11 / psy=1 / fade_compensate=0.00 / psy_rd=1.10:0.10 / mixed_ref=1 / me_range=32 / chroma_me=1 / trellis=2 / 8x8dct=1 / cqm=0 / deadzone=21,11 / fast_pskip=0 / chroma_qp_offset=-3 / threads=6 / lookahead_threads=1 / sliced_threads=0 / nr=0 / decimate=1 / interlaced=0 / bluray_compat=0 / constrained_intra=0 / fgo=0 / bframes=14 / b_pyramid=2 / b_adapt=2 / b_bias=0 / direct=1 / weightb=1 / open_gop=0 / weightp=2 / keyint=250 / keyint_min=23 / scenecut=40 / intra_refresh=0 / rc_lookahead=40 / rc=crf / mbtree=0 / crf=19.4000 / qcomp=0.70 / qpmin=0 / qpmax=69 / qpstep=4 / vbv_maxrate=50000 / vbv_bufsize=62500 / crf_max=0.0 / nal_hrd=none / filler=0 / ip_ratio=1.30 / pb_ratio=1.20 / aq=3:0.90
Language : English
Default : Yes
Forced : No
Color range : Limited
Color primaries : BT.709
Transfer characteristics : BT.709
Matrix coefficients : BT.709
Audio #1
ID : 2
Format : AC-3
Format/Info : Audio Coding 3
Commercial name : Dolby Digital
Codec ID : A_AC3
Duration : 1 h 53 min
Bit rate mode : Constant
Bit rate : 448 kb/s
Channel(s) : 6 channels
Channel layout : L R C LFE Ls Rs
Sampling rate : 48.0 kHz
Frame rate : 31.250 FPS (1536 SPF)
Bit depth : 16 bits
Compression mode : Lossy
Stream size : 364 MiB (11%)
Title : Профессиональный (полное дублирование) | DD 5.1 @ 448 kbps
Language : Russian
Service kind : Complete Main
Default : Yes
Forced : No
Audio #2
ID : 3
Format : AC-3
Format/Info : Audio Coding 3
Commercial name : Dolby Digital
Codec ID : A_AC3
Duration : 1 h 53 min
Bit rate mode : Constant
Bit rate : 448 kb/s
Channel(s) : 6 channels
Channel layout : L R C LFE Ls Rs
Sampling rate : 48.0 kHz
Frame rate : 31.250 FPS (1536 SPF)
Bit depth : 16 bits
Compression mode : Lossy
Stream size : 364 MiB (11%)
Title : Оригинал (английский) | DD 5.1 @ 448 kbps
Language : English
Service kind : Complete Main
Default : No
Forced : No
Audio #3
ID : 10
Format : MPEG Audio
Format version : Version 1
Format profile : Layer 3
Format settings : Joint stereo
Codec ID : A_MPEG/L3
Codec ID/Hint : MP3
Duration : 1 h 53 min
Bit rate mode : Constant
Bit rate : 256 kb/s
Channel(s) : 2 channels
Sampling rate : 44.1 kHz
Frame rate : 38.281 FPS (1152 SPF)
Compression mode : Lossy
Stream size : 208 MiB (6%)
Title : Uzbek tili Favvora studiosi
Language : Uzbek
Default : No
Forced : No
Text #1
ID : 4
Format : UTF-8
Codec ID : S_TEXT/UTF8
Codec ID/Info : UTF-8 Plain Text
Duration : 1 h 45 min
Bit rate : 86 b/s
Count of elements : 1443
Stream size : 67.1 KiB (0%)
Language : Russian
Default : No
Forced : No
Text #2
ID : 5
Format : UTF-8
Codec ID : S_TEXT/UTF8
Codec ID/Info : UTF-8 Plain Text
Duration : 1 h 51 min
Bit rate : 1 b/s
Count of elements : 20
Stream size : 914 Bytes (0%)
Title : Forced
Language : Russian
Default : Yes
Forced : No
Text #3
ID : 6
Format : UTF-8
Codec ID : S_TEXT/UTF8
Codec ID/Info : UTF-8 Plain Text
Duration : 1 h 45 min
Bit rate : 88 b/s
Count of elements : 1367
Stream size : 68.9 KiB (0%)
Language : Ukrainian
Default : No
Forced : No
Text #4
ID : 7
Format : UTF-8
Codec ID : S_TEXT/UTF8
Codec ID/Info : UTF-8 Plain Text
Duration : 1 h 45 min
Bit rate : 55 b/s
Count of elements : 1452
Stream size : 42.6 KiB (0%)
Language : English
Default : No
Forced : No
Text #5
ID : 8
Format : UTF-8
Codec ID : S_TEXT/UTF8
Codec ID/Info : UTF-8 Plain Text
Duration : 1 h 53 min
Bit rate : 54 b/s
Count of elements : 1400
Stream size : 44.9 KiB (0%)
Title : SDH
Language : English
Default : No
Forced : No
Text #6
ID : 9
Format : UTF-8
Codec ID : S_TEXT/UTF8
Codec ID/Info : UTF-8 Plain Text
Duration : 1 h 53 min
Bit rate : 65 b/s
Count of elements : 1513
Stream size : 54.0 KiB (0%)
Title : SDH.Colored
Language : English
Default : No
Forced : No
Menu
00:00:00.000 : en:Chapter 01
00:10:28.168 : en:Chapter 02
00:17:39.098 : en:Chapter 03
00:24:50.196 : en:Chapter 04
00:35:57.947 : en:Chapter 05
00:46:27.284 : en:Chapter 06
00:54:34.771 : en:Chapter 07
01:04:59.561 : en:Chapter 08
01:12:53.077 : en:Chapter 09
01:23:08.899 : en:Chapter 10
01:32:34.131 : en:Chapter 11
01:42:53.583 : en:Chapter 12
01:45:46.213 : en:Chapter 13
.torrent yuklash

Yuqori tezlikda va bepul ko‘chirish!

Qanday yuklab olinadi? · Torrent nima o‘zi? · Reyting va cheklovlar



So‘ngi marta tahrirlandi: dilshod6663 (2019-04-20 22:26), Jami tahrirlangan 2 marta
Profil ShX

N.U.R.I.K.B.E.K

Jins:
Yigit
Staj:
1 yil 7 oy
Xabarlar:
481

Qayerdan: Jizzax. Paxtakor

Taqiq:

Reliz uchun raxmat, relizga ancha qo'liz kelishib qoldi endi hatolarsiz reliz qilishga harakat qiling malumotlarda bazi kamchiliklar bor.

Mavzu yaratish 20-Apr-2019 13:59 (35 daqiqa o‘tgach)

Iqitibos

Profil ShX

N.U.R.I.K.B.E.K

Jins:
Yigit
Staj:
1 yil 7 oy
Xabarlar:
481

Qayerdan: Jizzax. Paxtakor

Taqiq:

1. Shapkasida
Kelajak chegarasi / Грань будущего / Edge of Tomorrow (Даг Лайман / Doug Liman) [2014, Фантастика, боевик, BDRip-AVC] Uzbek tilida
2.
Tarjima #1: Professional Ko'p ovozli uzbek tili (Favvora studiyasi)
3.
Rejisyor: Dag Lyman
4.
Video: AVC, 1152x480, 2721 Kbit / s, 23,976 fps
media infoni malumoti bilan mos kemayapti biroz

Mavzu yaratish 20-Apr-2019 14:09 (10 daqiqa o‘tgach)

Iqitibos

Profil ShX

dilshod6663 ®

Jins:
Ko‘rsatilmagan
Staj:
1 yil 7 oy
Xabarlar:
78
Taqiq:

N.U.R.I.K.B.E.K Quldan kelgancha o'zgartirdim

Mavzu yaratish 20-Apr-2019 14:42 (32 daqiqa o‘tgach)

Iqitibos

Profil ShX

dilshod6663 ®

Jins:
Ko‘rsatilmagan
Staj:
1 yil 7 oy
Xabarlar:
78
Taqiq:

N.U.R.I.K.B.E.K qolgan joyini tug'irlab quying

Mavzu yaratish 20-Apr-2019 14:43 (1 daqiqa o‘tgach)

Iqitibos

Profil ShX
Xabarlarni ko‘rsatish:    

Hozirgi vaqt: 27-Iyun 08:55

Vaqtlar farqi: UTC + 5



Siz mavzu yaratishingiz mumkin emas
Siz xabarlarga javob qaytarishingiz mumkin emas
Siz o‘z xabarlaringizni tahrirlashingiz mumkin emas
Siz o‘z xabarlaringizni o‘chirishingiz mumkin emas
Siz so‘rovlarda ovoz berishingiz mumkin emas
Siz xabalarga fayllarni biriktirishingiz mumkin emas
Siz fayllarni ko‘chirishingiz mumkin emas