˂
˃
Tarqatmalar statistikasi
Ko‘chirmoqdaman: [ 4 ]
Ko‘chirib bo‘ldim: [ 10 ]
 
     
 
 

dilshod6663 ®

Jins:
Ko‘rsatilmagan
Staj:
1 yil 7 oy
Xabarlar:
78
Taqiq:

San Andreas zilzilasi / San Andreas Chiqarilgan yil: 2015 yil
Mamlakat: AQSh, Avstraliya, Kanada
Janr: Jangari, Triller, Drama
Ajratilgan vaqti: 01:54:24
Tarjima #1: Professional Ko'p ovozli O'zbek tili (Favvora studiyasi)
Tarjima #2: Professional tuliq tarjima rus tili (i-tunes)
Rejisyor: Brad Peyton
Rollarda:
Duane Jonson, Carla Gugino, Alexandra Daddario, Yoan Griffit, Archi Punjabi,
Pol Giamatti, Hugo Jonson-Barth, Art Parkinson, Villi Yoon Lee, Kylie Minogue
Tavsif:
Ray hayotdagi barcha odamlarga yordam bergan qutqaruv helikopterining uchuvchisidir.
Har doim juda ko'p dahshatli narsalarni ko'rgan va bir necha bor o'zini juda og'ir vaziyatlarda ko'rgan.
Barcha to'siqlarga qaramasdan, u yordam berishga shoshildi, hatto eng yomoni uni oldindan kutib turishini ham nazarda tutmadi.
Kaliforniyadagi kuchli zilzila yuzlab odamlarni o'ldirib, er yuzida katta yorilish yuzaga keldi.
Umumjahon betartiblik davrida Ray qizini topishi kerak, ammo buni qilish juda qiyin bo'ladi.
Uning bolasi hali tirik ekaniga umid qilib, butun davlat orqali o'lik sayohatga boradi ...
Sifat: HDRip
Format: mkv
Video: XviD, 1365 Kbit / s, 720x304 (2.35: 1), 23.976 kvadrat / sekund
Audio 1: MP3, 2 ch, 44.1 kHz, 256 kb/s | O'z
Audio 2: AC-3, 448 kbps, 6 kanal, 48,0 kHz | Ru

Media info ma'lumotlari:

General
Unique ID : 311777827163514268665361101994784631923 (0xEA8E39AF6CBFB941A750A5987B16AC73)
Complete name : G:\kino\Разлом Сан-Андреас\Pa3L0m.SA.2O15.D.HDRip.1.46Gb.mkv
Format : Matroska
Format version : Version 4
File size : 1.66 GiB
Duration : 1 h 54 min
Overall bit rate : 2 070 kb/s
Encoded date : UTC 2019-04-20 20:50:44
Writing application : mkvmerge v25.0.0 ('Prog Noir') 64-bit
Writing library : libebml v1.3.6 + libmatroska v1.4.9
Video
ID : 1
Format : MPEG-4 Visual
Format profile : Advanced Simple@L5
Format settings : BVOP2
Format settings, BVOP : 2
Format settings, QPel : No
Format settings, GMC : No warppoints
Format settings, Matrix : Default (MPEG)
Codec ID : V_MS/VFW/FOURCC / XVID
Codec ID/Hint : XviD
Duration : 1 h 54 min
Bit rate : 1 365 kb/s
Width : 720 pixels
Height : 304 pixels
Display aspect ratio : 2.35:1
Frame rate mode : Constant
Frame rate : 23.976 (24000/1001) FPS
Color space : YUV
Chroma subsampling : 4:2:0
Bit depth : 8 bits
Scan type : Progressive
Compression mode : Lossy
Bits/(Pixel*Frame) : 0.260
Stream size : 1.09 GiB (66%)
Writing library : XviD 1.2.1 (UTC 2008-12-04)
Default : Yes
Forced : No
Audio #1
ID : 2
Format : AC-3
Format/Info : Audio Coding 3
Commercial name : Dolby Digital
Codec ID : A_AC3
Duration : 1 h 54 min
Bit rate mode : Constant
Bit rate : 448 kb/s
Channel(s) : 6 channels
Channel layout : L R C LFE Ls Rs
Sampling rate : 48.0 kHz
Frame rate : 31.250 FPS (1536 SPF)
Bit depth : 16 bits
Compression mode : Lossy
Stream size : 367 MiB (22%)
Service kind : Complete Main
Default : Yes
Forced : No
Audio #2
ID : 3
Format : MPEG Audio
Format version : Version 1
Format profile : Layer 3
Format settings : Joint stereo
Codec ID : A_MPEG/L3
Codec ID/Hint : MP3
Duration : 1 h 54 min
Bit rate mode : Constant
Bit rate : 256 kb/s
Channel(s) : 2 channels
Sampling rate : 44.1 kHz
Frame rate : 38.281 FPS (1152 SPF)
Compression mode : Lossy
Stream size : 209 MiB (12%)
Title : O'zbek tilida Favvora studiosi
Language : Uzbek
Default : No
Forced : No
.torrent yuklash

Yuqori tezlikda va bepul ko‘chirish!

Qanday yuklab olinadi? · Torrent nima o‘zi? · Reyting va cheklovlar

Profil ShX
Xabarlarni ko‘rsatish:    

Hozirgi vaqt: 27-Iyun 09:51

Vaqtlar farqi: UTC + 5



Siz mavzu yaratishingiz mumkin emas
Siz xabarlarga javob qaytarishingiz mumkin emas
Siz o‘z xabarlaringizni tahrirlashingiz mumkin emas
Siz o‘z xabarlaringizni o‘chirishingiz mumkin emas
Siz so‘rovlarda ovoz berishingiz mumkin emas
Siz xabalarga fayllarni biriktirishingiz mumkin emas
Siz fayllarni ko‘chirishingiz mumkin emas