˂
˃
Tarqatmalar statistikasi
Ko‘chiraman: [ 4 ]
Ko‘chirib bo‘ldim: [ 3 ]
 
     
 
 

MRLG ®

Jins:
Yigit
Staj:
1 yil 9 oy
Xabarlar:
596
Taqiq:

Snayper / American Sniper-««O'limning nishonida»»- Chiqqan yili: 2014
Davlat:AQSH
Janr: jangari, triller, drama, harbiy, biografiya, tarix
Davomiyligi: 02:12:38
Tarjima: Professional ko'povozli [Favvora]-Rejissyor: Klint Istvud / Clint Eastwood--Rollarda: Bredli Kuper, Siyenna Miller, Kayl Gallner, Koul Konis, Ben Rid, Eliz Robertson, Lyuk Sanshayn, Troy Vinsent, Brendon Salgado, Keyr OʻDonnell, Marne Patterson, Djeyson Xoll--Tavsif: Iroqda xizmat qilgan va raqib soldatlarni o'ldirish bo'yicha rekordchi bo'lgan, shu sababli iroqliklar uni iblis deb atashgan, Texaslik Kris Kaylning «Dengiz mushugi» memuarining ekranizatsiyasi. Film urushdan tashqari, Krisning turmush o`rtog`i, xizmatdoshlariga bog`lanib qolganiga guvoh bo`lgani haqidagi hotiralari haqida so`zlaydi.-- -Sifat: BDRip-AVC
Format: MKV
Video: AVC, 1080x450 (2.40:1), 2245 kbps, 23,976 fps, 0,193 bpp
Audio: Uzbek / MP3 / 2.0 / 48 kHz / 128 kbps /-

Media Info

General
Unique ID                                : 246558763502909408676267692069433531868 (0xB97D7D95DF8DB02A814FEFD203D65DDC)
Complete name                            : D:\Кино\Дубляж фильмлар\HD Films Collection\Snayper.2014.BDRip.x264.-[MRLG].mkv
Format                                   : Matroska
Format version                           : Version 2
File size                                : 2.20 GiB
Duration                                 : 2 h 12 min
Overall bit rate                         : 2 375 kb/s
Movie name                               : American Sniper (2014) - HELLYWOOD
Encoded date                             : UTC 2019-04-17 10:07:16
Writing application                      : mkvmerge v7.8.0 ('River Man') 32bit built on Apr  3 2015 12:11:22
Writing library                          : libebml v1.3.1 + libmatroska v1.4.2
Video
ID                                       : 1
Format                                   : AVC
Format/Info                              : Advanced Video Codec
Format profile                           : High@L4.1
Format settings, CABAC                   : Yes
Format settings, ReFrames                : 9 frames
Codec ID                                 : V_MPEG4/ISO/AVC
Duration                                 : 2 h 12 min
Bit rate                                 : 2 245 kb/s
Width                                    : 1 080 pixels
Height                                   : 450 pixels
Display aspect ratio                     : 2.40:1
Frame rate mode                          : Constant
Frame rate                               : 23.976 (24000/1001) FPS
Color space                              : YUV
Chroma subsampling                       : 4:2:0
Bit depth                                : 8 bits
Scan type                                : Progressive
Bits/(Pixel*Frame)                       : 0.193
Stream size                              : 2.04 GiB (93%)
Title                                    : potroks
Writing library                          : x264 core 128 r2216M 198a7ea
Encoding settings                        : cabac=1 / ref=10 / deblock=1:-2:-2 / analyse=0x3:0x133 / me=umh / subme=11 / psy=1 / psy_rd=1.02:0.08 / mixed_ref=1 / me_range=48 / chroma_me=1 / trellis=2 / 8x8dct=1 / cqm=0 / deadzone=21,11 / fast_pskip=0 / chroma_qp_offset=-3 / threads=6 / lookahead_threads=1 / sliced_threads=0 / nr=0 / decimate=1 / interlaced=0 / bluray_compat=0 / constrained_intra=0 / bframes=12 / b_pyramid=1 / b_adapt=2 / b_bias=0 / direct=3 / weightb=1 / open_gop=0 / weightp=2 / keyint=250 / keyint_min=23 / scenecut=40 / intra_refresh=0 / rc_lookahead=40 / rc=2pass / mbtree=0 / bitrate=2245 / ratetol=1.0 / qcomp=0.72 / qpmin=0 / qpmax=69 / qpstep=4 / cplxblur=20.0 / qblur=0.5 / vbv_maxrate=62500 / vbv_bufsize=62500 / nal_hrd=none / ip_ratio=1.35 / pb_ratio=1.25 / aq=1:0.85
Language                                 : English
Default                                  : Yes
Forced                                   : No
Audio
ID                                       : 2
Format                                   : MPEG Audio
Format version                           : Version 1
Format profile                           : Layer 3
Mode                                     : Joint stereo
Mode extension                           : MS Stereo
Codec ID                                 : A_MPEG/L3
Codec ID/Hint                            : MP3
Duration                                 : 2 h 12 min
Bit rate mode                            : Constant
Bit rate                                 : 128 kb/s
Channel(s)                               : 2 channels
Sampling rate                            : 48.0 kHz
Compression mode                         : Lossy
Stream size                              : 121 MiB (5%)
Title                                    : MY5 | MRLG
Writing library                          : LAME3.100Є
Language                                 : Uzbek
Default                                  : Yes
Forced                                   : No

Miniatyura

- © Template by MRLG
.torrent yuklash

Yuqori tezlikda va bepul ko‘chirish!

Qanday yuklab olinadi? · Torrent nima o‘zi? · Reyting va cheklovlar

Profil ShX

MRLG ®

Jins:
Yigit
Staj:
1 yil 9 oy
Xabarlar:
596
Taqiq:

Ko'chirish istagida bo'lganlar uchun: http://uztracker.me/vip_list.php

Mavzu yaratish 22-Apr-2019 16:48 (2 daqiqa o‘tgach)

Iqitibos

Profil ShX

Soft-Release

Jins:
Yigit
Staj:
1 yil 2 oy
Xabarlar:
774

Qayerdan: Kattakurgan

Taqiq:

8038Ko'chirish istagida bo'lganlar uchun: http://uztracker.me/vip_list.php
MRLG, Assalom Aleykum Admin Aka Xayrli Kech Ishlariz Yaxshimi Charchamayabsizmi Sog'ligiz Yaxshimi Tinchmisiz? Ha Zo'r Ish Qilibsiz VIP ni Ochib Endi Hammasi Zo'r Bo'ladi Nasib Hudo Hohlasa

Mavzu yaratish 22-Apr-2019 18:37 (1 soat 49 daqiqa o‘tgach)

Iqitibos

Profil ShX

MRLG ®

Jins:
Yigit
Staj:
1 yil 9 oy
Xabarlar:
596
Taqiq:

Soft-Release, Vaalaykum assalom, ha trekerni moddiy tomondan o'ylash vaqti keldi. Shu VIP tizimini joriy qildik.

Mavzu yaratish 22-Apr-2019 18:56 (18 daqiqa o‘tgach)

Iqitibos

Profil ShX

azizbek

Jins:
Yigit
Staj:
1 yil 6 oy
Xabarlar:
166

Qayerdan: Surxondaryo

Taqiq:

MRLG, Yaxshi ish qilibsiz. Lekin real qaralganda tas-ix dagilar sifatni ustun ko'rmaydi. Misol uchun bu yerdagi 20-30 martta ko'chirilgan reliz daxshat, ztv shunga o'xshagan saytda 2000-3000 martta ko'rilyapti. Asosy kamchilik tezlik yo'q.

Mavzu yaratish 22-Apr-2019 21:36 (2 soat 40 daqiqa o‘tgach)

Iqitibos

Profil ShX

AxeL

Jins:
Yigit
Staj:
1 yil 2 oy
Xabarlar:
743

Qayerdan: Gronland, Norway

Taqiq:

http://uztracker.me/viewtopic.php?t=1825

Mavzu yaratish 22-Apr-2019 22:14 (37 daqiqa o‘tgach)

Iqitibos

Profil ShX

MRLG ®

Jins:
Yigit
Staj:
1 yil 9 oy
Xabarlar:
596
Taqiq:

azizbek, Haq gap. Tekin bo'lsa lomni ham yutadi) Bizda ham sponsor paydo bo'lib "Co-location"lik bo'lib qolsak, bizda ham tezlikdan cheklov bo'lmas edi.

Mavzu yaratish 23-Apr-2019 09:34 (11 soat o‘tgach)

Iqitibos

Profil ShX

dilshod6663

Jins:
Ko‘rsatilmagan
Staj:
1 yil 5 oy
Xabarlar:
78
Taqiq:

Bu ish shaxsan menga yoqmadi ochig'i gap bu meni fikrim. shaxsan men misol uchun reliz qiliyapman shu trekkir uchun bolla uchun tarqatiyapman. Men berda foyda kurmiman masalan birov menga pul bermidi reliz uchun boz ustiga men pul tulab narsa skachat qilish kerak. MRLG meni bir zur taklifim bor endi xafagarchilik bulmasin balki meni yoshim ozroq kattaroqdir balki kichikroq nima disak shu trekkir foydasigada. Kim kup reliz qiliyapti yoki qiloladi shular bilan kulishgan holda vip tarmog'iga utkazilsa. relizlar kupayadi caytga qiziquvchilarni soni oshadi. (Misol 1 chi xonadan odamlarni 2 chi xonaga kuchirish uchun 2 chi xonada ovqat kup bulish kerak shunda odamlar tulagan puliga achinmaydilar) albatta bu mening shaxsiy fikrim.

MRLGdan izoh


Sizni misolingiz bo'yicha javob: 1-xonadagilar oldin tekinga ovqatlangan bo'lishsa endilikda o'sha ovqatni pulini to'lashadi.

Mavzu yaratish 02-May-2019 00:32 (8 kun o‘tgach)

Iqitibos

Profil ShX

dilshod6663

Jins:
Ko‘rsatilmagan
Staj:
1 yil 5 oy
Xabarlar:
78
Taqiq:

MRLG tushunarli charchamang omadizni bersin.

Mavzu yaratish 02-May-2019 21:17 (20 soat o‘tgach)

Iqitibos

Profil ShX
Xabarlarni ko‘rsatish:    

Hozirgi vaqt: 24-May 14:35

Vaqtlar farqi: UTC + 5



Siz mavzu yaratishingiz mumkin emas
Siz xabarlarga javob qaytarishingiz mumkin emas
Siz o‘z xabarlaringizni tahrirlashingiz mumkin emas
Siz o‘z xabarlaringizni o‘chirishingiz mumkin emas
Siz so‘rovlarda ovoz berishingiz mumkin emas
Siz xabalarga fayllarni biriktirishingiz mumkin emas
Siz fayllarni ko‘chirishingiz mumkin emas