˂
˃
Tarqatmalar statistikasi
Ko‘chiraman: [ 1 ]
Ko‘chirmoqdaman: [ 2 ]
Ko‘chirib bo‘ldim: [ 1 ]
 
     
 
 

AxeL ®

Jins:
Yigit
Staj:
1 yil 2 oy
Xabarlar:
743

Qayerdan: Gronland, Norway

Taqiq:

Ajdarho o'rgatuvchilar 3 / Как приручить дракона 3 / How to Train Your Dragon: The Hidden World- Chiqqan yili: 2018
Davlat: AQSH
Janr: hayoliy, jangari, kulguli, sarguzasht
Davomiyligi: 01:44:26
Tarjima: Professional [Ko'p ovozli] O'zbek tilida-Rejissyor: Din Debloiz / Dean DeBlois-Rollarda: Keyt Blanshett, Jerard Batler, Jona Xill, Kit Harrington, Kristen Uig, Jey Barushel, Kristofer Mins-Plasse, Amerika Ferrera, Myurrey Abraxam, Kreyg Fergyusson,..-Tavsif: Когда-то викинги жили в гармонии с драконами. В те времена они делили радость, горе… и последние штаны. Казалось, что так будет всегда, но появление загадочной Дневной Фурии изменило жизнь острова. И теперь Иккинг и Беззубик столкнутся с безжалостным охотником на драконов, жаждущим уничтожить все, что им дорого.-Kinopoisk.ru reytingi: 7.7 (45.216 ovoz)-Sifat: WEB-DLRip
Format: MKV
Video: Xvid 720x304 23.976fps 1 801 Kbps
Audio: MP3 44100Hz stereo 192kbps O'zbek tilida-

MI

General
Unique ID                      : 20428615495049169032485329374943138043 (0xF5E6881CA150B59C3C8298BCDAC50FB)
Complete name                  : D:\Films\Multfilms\HD Video\Ajdarho_O'rgatuvchilar_3_WEB-DLRip.mkv
Format                         : Matroska
Format version                 : Version 4 / Version 2
File size                      : 1.46 GiB
Duration                       : 1h 44mn
Overall bit rate               : 1 995 Kbps
Encoded date                   : UTC 2019-04-11 18:26:13
Writing application            : mkvmerge v22.0.0 ('At The End Of The World') 64-bit
Writing library                : libebml v1.3.5 + libmatroska v1.4.8
Video
ID                             : 1
Format                         : MPEG-4 Visual
Format profile                 : Advanced Simple@L5
Format settings, BVOP          : 1
Format settings, QPel          : No
Format settings, GMC           : No warppoints
Format settings, Matrix        : Custom
Codec ID                       : V_MS/VFW/FOURCC / XVID
Codec ID/Hint                  : XviD
Duration                       : 1h 44mn
Bit rate                       : 1 801 Kbps
Width                          : 720 pixels
Height                         : 304 pixels
Display aspect ratio           : 2.35:1
Frame rate mode                : Constant
Frame rate                     : 23.976 (23976/1000) fps
Original frame rate            : 23.976 (24000/1001) fps
Color space                    : YUV
Chroma subsampling             : 4:2:0
Bit depth                      : 8 bits
Scan type                      : Progressive
Compression mode               : Lossy
Bits/(Pixel*Frame)             : 0.343
Stream size                    : 1.31 GiB (90%)
Writing library                : XviD 73
Default                        : Yes
Forced                         : No
Audio
ID                             : 2
Format                         : MPEG Audio
Format version                 : Version 1
Format profile                 : Layer 3
Mode                           : Joint stereo
Codec ID                       : A_MPEG/L3
Codec ID/Hint                  : MP3
Duration                       : 1h 44mn
Bit rate mode                  : Constant
Bit rate                       : 192 Kbps
Channel(s)                     : 2 channels
Sampling rate                  : 44.1 KHz
Frame rate                     : 38.281 fps (1152 spf)
Compression mode               : Lossy
Stream size                    : 143 MiB (10%)
Title                          : O'zbek tilida (AxeL)
Writing library                : LAME3.97
Language                       : Uzbek
Default                        : Yes
Forced                         : No
.torrent yuklash

Yuqori tezlikda va bepul ko‘chirish!

Qanday yuklab olinadi? · Torrent nima o‘zi? · Reyting va cheklovlar

Profil ShX
Xabarlarni ko‘rsatish:    

Hozirgi vaqt: 24-May 13:48

Vaqtlar farqi: UTC + 5



Siz mavzu yaratishingiz mumkin emas
Siz xabarlarga javob qaytarishingiz mumkin emas
Siz o‘z xabarlaringizni tahrirlashingiz mumkin emas
Siz o‘z xabarlaringizni o‘chirishingiz mumkin emas
Siz so‘rovlarda ovoz berishingiz mumkin emas
Siz xabalarga fayllarni biriktirishingiz mumkin emas
Siz fayllarni ko‘chirishingiz mumkin emas