˂
˃
Tarqatmalar statistikasi
Ko‘chirmoqdaman: [ 24 ]
Ko‘chirib bo‘ldim: [ 14 ]
 
     
 
 

logan7272 ®

Jins:
Yigit
Staj:
1 yil 3 oy
Xabarlar:
73

Qayerdan: Namangan

Taqiq:

Ajdarho o'rgatuvchilar 3 / How to Train Your Dragon: The Hidden World -Chiqarilgan yil: 2019 yil
Davlat: AQSh, Yaponiya
Janr: Multfilm, Jangari Hayoliy, Kulguli, Sarguzasht, Oilaviy
Davomiyligi: 01:44:41
Tarjima: O'zbekcha-Rejisyor: Din Debloiz-Rollarda: Jay barushel Keyt Blanshett Kreyg Fergyuson Amerika Ferrera Djona Hill Kit Harington Djastin Ruppl Kristofer Mints-Plasse F.Myurrey Abraham Djerard Batler-Film haqida: Bir paytlar Vikinglar ajdar bilan ahil yashagan. O'sha kunlarda ular quvonch, qayg'u bilan bo'lishdilar. Bu har doim ham shunday bo'lavermas edi, lekin sirli kunduzgi Furiya kelishi orolning hayotini o'zgartirdi. Va endi Iking va Kemshek shafqatsiz ajdaho ovchiga qarshi kurash boshladilar.-Sifat: Blu-Ray HEVC 1080p 10Bit
Format: MKV
Video: HEVC, 1920x816, ~2312 kbps, 23,976 fps
Audio: AAC LC, 48 kHz, 61 kbps, 2 ch
-

Media Info

General
Unique ID : 118295472613549123135424219915232991361 (0x58FEE119C065792C734C65D0F3B7D881)
Complete name :How to Train Your Dragon The Hidden World 2019 (1080p x265 Joy).mkv
Format : Matroska
Format version : Version 4 / Version 2
File size : 1.73 GiB
Duration : 1 h 44 min
Overall bit rate : 2 363 kb/s
Movie name : How to Train Your Dragon The Hidden World 2019 (1080p x265 q22 FS98 Joy)[UTR]
Encoded date : UTC 2019-04-22 18:24:30
Writing application : mkvmerge v32.0.0 ('Astral Progressions') 32-bit
Writing library : libebml v1.3.7 + libmatroska v1.5.0
Cover : Yes
Attachments : cover.jpg
Writing frontend : StaxRip v2.0.0.1, Encoded by JoyBell
Video
ID : 1
Format : HEVC
Format/Info : High Efficiency Video Coding
Format profile : Main 10@L4@Main
Codec ID : V_MPEGH/ISO/HEVC
Duration : 1 h 44 min
Bit rate : 2 312 kb/s
Width : 1 920 pixels
Height : 816 pixels
Display aspect ratio : 2.35:1
Frame rate mode : Constant
Frame rate : 23.976 (24000/1001) FPS
Color space : YUV
Chroma subsampling : 4:2:0
Bit depth : 10 bits
Bits/(Pixel*Frame) : 0.062
Stream size : 1.68 GiB (97%)
Writing library : x265 3.0_Au+14-c7e5878bdd31:[Windows][MSVC 1916][64 bit] 10bit
Encoding settings : cpuid=1111039 / frame-threads=3 / numa-pools=12 / wpp / no-pmode / no-pme / no-psnr / ssim / log-level=2 / input-csp=1 / input-res=1920x816 / interlace=0 / total-frames=149757 / level-idc=0 / high-tier=1 / uhd-bd=0 / ref=4 / no-allow-non-conformance / no-repeat-headers / annexb / no-aud / no-hrd / info / hash=0 / no-temporal-layers / open-gop / min-keyint=23 / keyint=250 / gop-lookahead=0 / bframes=8 / b-adapt=2 / b-pyramid / bframe-bias=20 / rc-lookahead=80 / lookahead-slices=4 / scenecut=40 / radl=0 / no-splice / no-intra-refresh / ctu=64 / min-cu-size=8 / rect / no-amp / max-tu-size=32 / tu-inter-depth=1 / tu-intra-depth=1 / limit-tu=0 / rdoq-level=2 / dynamic-rd=0.00 / ssim-rd / signhide / no-tskip / nr-intra=0 / nr-inter=0 / constrained-intra / strong-intra-smoothing / max-merge=3 / limit-refs=3 / limit-modes / me=3 / subme=3 / merange=57 / temporal-mvp / weightp / no-weightb / no-analyze-src-pics / deblock=0:0 / sao / no-sao-non-deblock / rd=4 / early-skip / rskip / no-fast-intra / no-tskip-fast / no-cu-lossless / no-b-intra / no-splitrd-skip / rdpenalty=0 / psy-rd=1.20 / psy-rdoq=0.80 / no-rd-refine / no-lossless / cbqpoffs=0 / crqpoffs=0 / rc=crf / crf=21.0 / qcomp=0.60 / qpstep=4 / stats-write=0 / stats-read=0 / ipratio=1.40 / pbratio=1.30 / aq-mode=1 / aq-strength=1.00 / cutree / zone-count=0 / no-strict-cbr / qg-size=32 / no-rc-grain / qpmax=69 / qpmin=0 / no-const-vbv / sar=0 / overscan=0 / videoformat=5 / range=0 / colorprim=2 / transfer=2 / colormatrix=2 / chromaloc=0 / display-window=0 / max-cll=0,0 / min-luma=0 / max-luma=1023 / log2-max-poc-lsb=8 / vui-timing-info / vui-hrd-info / slices=1 / no-opt-qp-pps / no-opt-ref-list-length-pps / no-multi-pass-opt-rps / scenecut-bias=0.05 / no-opt-cu-delta-qp / no-aq-motion / no-hdr / no-hdr-opt / no-dhdr10-opt / no-idr-recovery-sei / analysis-reuse-level=5 / scale-factor=0 / refine-intra=0 / refine-inter=0 / refine-mv=0 / refine-ctu-distortion=0 / no-limit-sao / ctu-info=0 / no-lowpass-dct / refine-analysis-type=
0 / copy-pic=1 / max-ausize-factor=1.0 / no-dynamic-refine / no-single-sei / no-hevc-aq / no-svt / qp-adaptation-range=1.00
Default : Yes
Forced : No
Audio
ID : 2
Format : AAC
Format/Info : Advanced Audio Codec
Format profile : LC
Codec ID : A_AAC-2
Duration : 1 h 44 min
Bit rate : 61.4 kb/s
Channel(s) : 2 channels
Channel positions : Front: L R
Sampling rate : 48.0 kHz
Frame rate : 46.875 FPS (1024 SPF)
Compression mode : Lossy
Stream size : 45.9 MiB (3%)
Title : uzbek tili
Language : Uzbek
Default : Yes
Forced : No
Menu
00:00:00.000 : :Chapter 1
00:05:13.521 : :Chapter 2
00:10:26.834 : :Chapter 3
00:14:52.224 : :Chapter 4
00:20:33.065 : :Chapter 5
00:24:38.685 : :Chapter 6
00:28:40.885 : :Chapter 7
00:31:10.118 : :Chapter 8
00:37:35.127 : :Chapter 9
00:44:38.550 : :Chapter 10
00:47:53.579 : :Chapter 11
00:53:11.021 : :Chapter 12
00:57:36.286 : :Chapter 13
01:01:25.056 : :Chapter 14
01:08:55.923 : :Chapter 15
01:14:17.703 : :Chapter 16
01:19:31.141 : :Chapter 17
01:23:23.289 : :Chapter 18
01:28:24.716 : :Chapter 19
01:33:53.377 : :Chapter 20
LAVHALAR
.torrent yuklash

Yuqori tezlikda va bepul ko‘chirish!

Qanday yuklab olinadi? · Torrent nima o‘zi? · Reyting va cheklovlar

Profil ShX

ZAFAR-studio

Jins:
Yigit
Staj:
1 yil
Xabarlar:
48

Qayerdan: Хоразм вилояти, Урганч шаҳри, "12-сонли Маъшал" маҳалласидан

Taqiq:

logan7272, Укам буни қачон тарқатасиз ? ёки тарқатиш ният йўқми ?

Mavzu yaratish 28-Apr-2019 15:13 (5 kun o‘tgach)

Iqitibos

Profil ShX

AxeL

Jins:
Yigit
Staj:
1 yil 3 oy
Xabarlar:
745

Qayerdan: Gronland, Norway

Taqiq:

ZAFAR-studio, ayrim sabablarga to'xtatib qo'yilgan!

Mavzu yaratish 28-Apr-2019 16:39 (1 soat 26 daqiqa o‘tgach)

Iqitibos

Profil ShX

dimab707

Jins:
Yigit
Staj:
8 oy 11 kun
Xabarlar:
20

Qayerdan: Toshkent

Taqiq:

tarqatiladimi dostlar bu multik ????

Mavzu yaratish 01-May-2019 12:24 (2 kun 19 soat o‘tgach)

Iqitibos

Profil ShX

azizbek

Jins:
Yigit
Staj:
1 yil 8 oy
Xabarlar:
169

Qayerdan: Surxondaryo

Taqiq:

dimab707, O'zbekistonda yomg'irlar mavsumi bo'ldi. Uzonline abonentlari telefon simlarini suv bosganligi sababli tarqata olmayapti. Qishloqlarga optika kelmaganligi sababli aybga buyrimeslar. Relizlarni optikadagi tarqatuvchilar ishlab chiqsa yaxshi ish bo'lardi

Mavzu yaratish 01-May-2019 22:59 (10 soat o‘tgach)

Iqitibos

Profil ShX

dimab707

Jins:
Yigit
Staj:
8 oy 11 kun
Xabarlar:
20

Qayerdan: Toshkent

Taqiq:

8103dimab707, O'zbekistonda yomg'irlar mavsumi bo'ldi. Uzonline abonentlari telefon simlarini suv bosganligi sababli tarqata olmayapti. Qishloqlarga optika kelmaganligi sababli aybga buyrimeslar. Relizlarni optikadagi tarqatuvchilar ishlab chiqsa yaxshi ish bo'lardi
unaqada manga o`rgatin uzim reliz qilaman maniki optika tarifim ham "IT" xilidan faqat uzbekcha kino yoq ))

Mavzu yaratish 02-May-2019 09:13 (10 soat o‘tgach)

Iqitibos

Profil ShX

Qorbobo

Jins:
Ko‘rsatilmagan
Staj:
5 oy 11 kun
Xabarlar:
17
Taqiq:

relizni uchirib tashavorsayam buladi.

Mavzu yaratish 12-May-2019 13:51 (10 kun o‘tgach)

Iqitibos

Profil ShX
Xabarlarni ko‘rsatish:    

Hozirgi vaqt: 17-Iyul 15:40

Vaqtlar farqi: UTC + 5



Siz mavzu yaratishingiz mumkin emas
Siz xabarlarga javob qaytarishingiz mumkin emas
Siz o‘z xabarlaringizni tahrirlashingiz mumkin emas
Siz o‘z xabarlaringizni o‘chirishingiz mumkin emas
Siz so‘rovlarda ovoz berishingiz mumkin emas
Siz xabalarga fayllarni biriktirishingiz mumkin emas
Siz fayllarni ko‘chirishingiz mumkin emas