˂
˃
Tarqatmalar statistikasi
Ko‘chirmoqdaman: [ 1 ]
Ko‘chirib bo‘ldim: [ 17 ]
 
     
 
 

KILLER_89-10 ®

Jins:
Yigit
Staj:
1 yil 2 oy
Xabarlar:
34
Taqiq:

Ruh 5 13 (4-Qism) 2018
Chiqqan yili: 2018
Davlat: O'zbeksiton
Janr: Qo’rqinchli
Davomiyligi: 01:35:10
Tarjima: Talab etilmaydi-Rejissor: Shavkat Jayron-Ssenariy muallifi: Shavkat Jayron
Postanovkachi rejissyor: Shavkat Jayron
Postanovkachi operator: Nozim Tolipov
Bastakor: Doniyor Sa’dullayev
Prodyuser: Shuhrat Jayron---Bosh rollarda: Shavkar Jayron,Madina Abdullayeva Shuhkat Jayron,
Shoxista Xolmatov, Shoxrux Islamov,Aziza Aripova,Feruza Xasanov,Asliddin Raximov,Dilnoza Satimova-Film haqida: Ssenariy muallifi va postanovkachi rejissyor yana Shavkat Jayron bo‘lib, film 2018-yil 20-yanvardan tomoshabinlarga taqdim etiladi. Oldingi uchta qismi o‘zbek kinosida yangilik bo‘lgani uchun tomoshabinlar orasida yomon taassurot qoldirmagandi.-Sifat: WEBRip
Video format: MP4
Video: MPEG4 Video (H264) 1264x720 25fps 452kbps
Audio: AAC 44100Hz stereo 128kbps--

MedioInfo

General
General
Complete name : D:\FILM\KINOLAR\o'zbek kinolari\Ruh 5_13 (4-Qism O'zbek film) 2019.mp4
Format : MPEG-4
Format profile : Base Media / Version 2
Codec ID : mp42
File size : 397 MiB
Duration : 1h 35mn
Overall bit rate mode : Variable
Overall bit rate : 584 Kbps
Encoded date : UTC 2019-04-24 15:07:48
Tagged date : UTC 2019-04-24 15:07:48
gsst : 0
gstd : 5709949
Video
ID : 1
Format : AVC
Format/Info : Advanced Video Codec
Format profile : Main@L3.1
Format settings, CABAC : Yes
Format settings, ReFrames : 3 frames
Codec ID : avc1
Codec ID/Info : Advanced Video Coding
Duration : 1h 35mn
Bit rate : 452 Kbps
Width : 1 280 pixels
Height : 720 pixels
Display aspect ratio : 16:9
Frame rate mode : Constant
Frame rate : 25.000 fps
Color space : YUV
Chroma subsampling : 4:2:0
Bit depth : 8 bits
Scan type : Progressive
Bits/(Pixel*Frame) : 0.020
Stream size : 308 MiB (77%)
Title : ISO Media file produced by Google Inc. Created on: 04/24/2019.
Writing library : x264 core 155 r2901 7d0ff22
Encoded date : UTC 2019-04-24 15:07:48
Tagged date : UTC 2019-04-24 15:07:48
Color primaries : BT.709
Transfer characteristics : BT.709
Matrix coefficients : BT.709
Audio
ID : 2
Format : AAC
Format/Info : Advanced Audio Codec
Format profile : LC
Codec ID : 40
Duration : 1h 35mn
Bit rate mode : Variable
Bit rate : 128 Kbps
Channel(s) : 2 channels
Channel positions : Front: L R
Sampling rate : 44.1 KHz
Compression mode : Lossy
Stream size : 87.1 MiB (22%)
Title : ISO Media file produced by Google Inc. Created on: 04/24/2019.
Language : English
Encoded date : UTC 2019-04-24 15:07:48
Tagged date : UTC 2019-04-24 15:07:48
--
.torrent yuklash

Yuqori tezlikda va bepul ko‘chirish!

Qanday yuklab olinadi? · Torrent nima o‘zi? · Reyting va cheklovlar

Profil ShX
Xabarlarni ko‘rsatish:    

Hozirgi vaqt: 17-Iyun 02:27

Vaqtlar farqi: UTC + 5



Siz mavzu yaratishingiz mumkin emas
Siz xabarlarga javob qaytarishingiz mumkin emas
Siz o‘z xabarlaringizni tahrirlashingiz mumkin emas
Siz o‘z xabarlaringizni o‘chirishingiz mumkin emas
Siz so‘rovlarda ovoz berishingiz mumkin emas
Siz xabalarga fayllarni biriktirishingiz mumkin emas
Siz fayllarni ko‘chirishingiz mumkin emas