˂
˃
Tarqatmalar statistikasi
Ko‘chiraman: [ 1 ]
Ko‘chirmoqdaman: [ 4 ]
Ko‘chirib bo‘ldim: [ 23 ]
 
     
 
 

MRLG ®

Jins:
Yigit
Staj:
1 yil 11 oy
Xabarlar:
609
Taqiq:

22 Mil / 22 мили / Mile 22-««Sharpalar qoida bo'yicha o'ynashmaydi»»- Chiqqan yili: 2018
Davlat: AQSH
Janr: Jangari, triller, kriminal, sarguzasht
Davomiyligi: 01:34:39
Tarjima #1: Professional ko'p ovozli [Kinoteatr]
Tarjima #2:To'liq dublyaj [iTunes]
Tarjima #3:Original
Subtitrlar: mavjud-Rejissyor: Piter Berg / Peter Berg--Rollarda: Mark Uolberg, Loren Koxen, Iko Uays, Djon Malkovich, Ronda Rauzi, Karlo Alban, Natalya Gubskaya, Siel, Sem Medina, Kit A. Bolden, Djenik Xendriks, Billi Smit--Tavsif: Sharpalar - bu oliy darajadagi maxfiy razvedkalar jamoasi: ular rasman mavjud emas, lekin aslida ular mavjuddir. Eski usullar ish bermaganida, ular muammolarni hal qiladi va har doim o'z maqsadiga erishadi. Markaziy razvedka boshqarmasi ko'magida jamoaning superayg'oqchilari og'ir vazifani bajarishadi: Janubiy-Sharqiy Osiyodagi muhim guvohni yashirincha olib chiqib ketish. Qutqaruv samolyotigacha bo'lgan o'ta xavfli 22 milni bosib o'tishlariga to'g'ri keladi.-- -Sifat: BDRip 1080p HEVC 10 Bit
Format: MKV
Video: HEVC, 1920x800 (2.40:1), 2314 kbps, 23,976 fps, 0,063 bpp
Audio №1: O'zbek / MP3 / 2.0 / 48 kHz / 128 kbps /
Audio №2: Rus / AC3 / 5.1 / 48 kHz / 384 kbps / | iTunes |
Audio №3: Original / AC3 / 5.1 / 48 kHz / 448 kbps /-

Media Info

General
Unique ID                                : 198919996136259592620184391754671939147 (0x95A699037F6D1BB093B15B6B47EB5E4B)
Complete name                            : D:\Кино\Дубляж фильмлар\HD Films Collection\22.Mil.2018.1080p.10bit.HEVC-[MRLG].mkv
Format                                   : Matroska
Format version                           : Version 2
File size                                : 2.21 GiB
Duration                                 : 1 h 34 min
Overall bit rate                         : 3 341 kb/s
Encoded date                             : UTC 2019-05-01 15:49:42
Writing application                      : mkvmerge v7.8.0 ('River Man') 32bit built on Apr  3 2015 12:11:22
Writing library                          : libebml v1.3.1 + libmatroska v1.4.2
Attachments                              : poster.jpg
Video
ID                                       : 1
Format                                   : HEVC
Format/Info                              : High Efficiency Video Coding
Format profile                           : Main 10@L4@Main
Codec ID                                 : V_MPEGH/ISO/HEVC
Duration                                 : 1 h 34 min
Bit rate                                 : 2 315 kb/s
Width                                    : 1 920 pixels
Height                                   : 800 pixels
Display aspect ratio                     : 2.40:1
Frame rate mode                          : Constant
Frame rate                               : 23.976 (24000/1001) FPS
Color space                              : YUV
Chroma subsampling                       : 4:2:0
Bit depth                                : 10 bits
Bits/(Pixel*Frame)                       : 0.063
Stream size                              : 1.53 GiB (69%)
Default                                  : Yes
Forced                                   : No
Statistics Tags Issue                    : mkvmerge v28.2.0 ('The Awakening') 64-bit 2019-02-08 07:55:37 / mkvmerge v7.8.0 ('River Man') 32bit built on Apr  3 2015 12:11:22 2019-05-01 15:49:42
FromStats_BitRate                        : 2378174
FromStats_Duration                       : 01:34:39.841000000
FromStats_FrameCount                     : 136180
FromStats_StreamSize                     : 1688456377
Audio #1
ID                                       : 2
Format                                   : MPEG Audio
Format version                           : Version 1
Format profile                           : Layer 3
Mode                                     : Joint stereo
Mode extension                           : MS Stereo
Codec ID                                 : A_MPEG/L3
Codec ID/Hint                            : MP3
Duration                                 : 1 h 34 min
Bit rate mode                            : Constant
Bit rate                                 : 128 kb/s
Channel(s)                               : 2 channels
Sampling rate                            : 48.0 kHz
Compression mode                         : Lossy
Stream size                              : 86.7 MiB (4%)
Title                                    : Kinoteatr | MRLG
Writing library                          : LAME3.100Є
Language                                 : Uzbek
Default                                  : Yes
Forced                                   : No
Audio #2
ID                                       : 3
Format                                   : AC-3
Format/Info                              : Audio Coding 3
Mode extension                           : CM (complete main)
Format settings, Endianness              : Big
Codec ID                                 : A_AC3
Duration                                 : 1 h 34 min
Bit rate mode                            : Constant
Bit rate                                 : 384 kb/s
Channel(s)                               : 6 channels
Channel positions                        : Front: L C R, Side: L R, LFE
Sampling rate                            : 48.0 kHz
Frame rate                               : 31.250 FPS (1536 spf)
Compression mode                         : Lossy
Stream size                              : 260 MiB (11%)
Language                                 : Russian
Default                                  : No
Forced                                   : No
Statistics Tags Issue                    : mkvmerge v28.2.0 ('The Awakening') 64-bit 2019-02-08 07:55:37 / mkvmerge v7.8.0 ('River Man') 32bit built on Apr  3 2015 12:11:22 2019-05-01 15:49:42
FromStats_BitRate                        : 384000
FromStats_Duration                       : 01:34:39.872000000
FromStats_FrameCount                     : 177496
FromStats_StreamSize                     : 272633856
Audio #3
ID                                       : 4
Format                                   : AC-3
Format/Info                              : Audio Coding 3
Mode extension                           : CM (complete main)
Format settings, Endianness              : Big
Codec ID                                 : A_AC3
Duration                                 : 1 h 34 min
Bit rate mode                            : Constant
Bit rate                                 : 448 kb/s
Channel(s)                               : 6 channels
Channel positions                        : Front: L C R, Side: L R, LFE
Sampling rate                            : 48.0 kHz
Frame rate                               : 31.250 FPS (1536 spf)
Compression mode                         : Lossy
Stream size                              : 303 MiB (13%)
Language                                 : English
Default                                  : No
Forced                                   : No
Statistics Tags Issue                    : mkvmerge v28.2.0 ('The Awakening') 64-bit 2019-02-08 07:55:37 / mkvmerge v7.8.0 ('River Man') 32bit built on Apr  3 2015 12:11:22 2019-05-01 15:49:42
FromStats_BitRate                        : 448000
FromStats_Duration                       : 01:34:39.840000000
FromStats_FrameCount                     : 177495
FromStats_StreamSize                     : 318071040
Text
ID                                       : 5
Format                                   : UTF-8
Codec ID                                 : S_TEXT/UTF8
Codec ID/Info                            : UTF-8 Plain Text
Title                                    : ENG
Language                                 : English
Default                                  : Yes
Forced                                   : No
Statistics Tags Issue                    : mkvmerge v28.2.0 ('The Awakening') 64-bit 2019-02-08 07:55:37 / mkvmerge v7.8.0 ('River Man') 32bit built on Apr  3 2015 12:11:22 2019-05-01 15:49:42
FromStats_BitRate                        : 69
FromStats_Duration                       : 01:25:34.013000000
FromStats_FrameCount                     : 1404
FromStats_StreamSize                     : 44403

Miniatyura

- © Template by MRLG
.torrent yuklash

Yuqori tezlikda va bepul ko‘chirish!

Qanday yuklab olinadi? · Torrent nima o‘zi? · Reyting va cheklovlar

Profil ShX

AxeL

Jins:
Yigit
Staj:
1 yil 4 oy
Xabarlar:
743

Qayerdan: Gronland, Norway

Taqiq:

Iko Uaysdan navbatdagi ajoyib film, koʻrishni maslahat bergan boʻlardim

Mavzu yaratish 02-May-2019 12:34 (1 soat 59 daqiqa o‘tgach)

Iqitibos

Profil ShX

hostbot

Jins:
Ko‘rsatilmagan
Staj:
1 oy 7 kun
Xabarlar:
1
Taqiq:

MRLG salom nimaga skachatga silka yuq iltimos shuni kuchirib olishni iloji bulsa ayting

Mavzu yaratish 15-Iyul-2019 21:53 (2 oy 13 kun o‘tgach)

Iqitibos

Profil ShX
Xabarlarni ko‘rsatish:    

Hozirgi vaqt: 21-Iyul 04:57

Vaqtlar farqi: UTC + 5



Siz mavzu yaratishingiz mumkin emas
Siz xabarlarga javob qaytarishingiz mumkin emas
Siz o‘z xabarlaringizni tahrirlashingiz mumkin emas
Siz o‘z xabarlaringizni o‘chirishingiz mumkin emas
Siz so‘rovlarda ovoz berishingiz mumkin emas
Siz xabalarga fayllarni biriktirishingiz mumkin emas
Siz fayllarni ko‘chirishingiz mumkin emas