˂
˃
Tarqatmalar statistikasi
Ko‘chirmoqdaman: [ 1 ]
Ko‘chirib bo‘ldim: [ 15 ]
 
     
 
 

N.U.R.I.K.B.E.K ®

Jins:
Yigit
Staj:
1 yil 7 oy
Xabarlar:
476

Qayerdan: Jizzax. Paxtakor

Taqiq:

-Ajdarho O'rgatuvchilar 3 | Как Приручить Дракона 3 | How to Train Your Dragon: The Hidden World
--Chiqqan yili: 2019
Davlat: AQSH
Janr: Multfilm, Hayoliy, Jangari, Sarguzasht, Oilaviy, Kulguli.
Davomiyligi: 01:44:06
Tarjima 1: Audio Yo'lak: MY5 O'zbek Tilida
Tarjima 2: Audio Yo'lak: Rus Tili--Rejissyor: Din DeBlua.--Rollarni ovozlashtirganlar: Keyt Blanshett, Jerard Batler, Jona Xill, Kit Harrington, Kristen Uig, Jey Barushel, Kristofer Mins-Plasse, Amerika Ferrera, Myurrey Abraxam, Kreyg Fergyusson.--Tavsif: Vikinglar ajdaholar bilan uyg'un yashagan. O'sha kunlarda ular quvonch, qayg'u va oxirgi shimlarni baham ko'rdilar. Bu har doim shunday bo'ladi, lekin sirli kunlik Furyaning ko'rinishi orolning hayotini o'zgartirdi. Endi esa, ikking va tishsiz ajdarning shafqatsiz ovchisiga duch keladi, ular qimmatbaho narsalarni yo'q qilishni istaydi.--Videoning sifati: BDRip 1080p
Video format: MKV-Video: HEVC 1920x816 23.976fps 2 312 kb/s
Audio: MP3 48000Hz stereo 128kbps O'zbek Tili
Audio 2: Dolby AC3 48000Hz 6ch 384kbps Rus Tili
--

Media Info

General
Format : Matroska
Format version : Version 4 / Version 2
File size : 2.06 GiB
Duration : 1 h 44 min
Overall bit rate : 2 826 kb/s
Movie name : How to Train Your Dragon The Hidden World 2019 (1080p x265 q22 FS98 Joy)[UTR]
Encoded date : UTC 2019-04-24 14:23:09
Writing application : mkvmerge v15.0.0 ('Duel with the Devil') 64-bit
Writing library : libebml v1.3.5 + libmatroska v1.4.5
Cover : Yes
Attachments : cover.jpg
Video
ID : 1
Format : HEVC
Format/Info : High Efficiency Video Coding
Format profile : Main 10@L4@Main
Codec ID : V_MPEGH/ISO/HEVC
Duration : 1 h 44 min
Bit rate : 2 312 kb/s
Width : 1 920 pixels
Height : 816 pixels
Display aspect ratio : 2.35:1
Frame rate mode : Constant
Frame rate : 23.976 (24000/1001) FPS
Color space : YUV
Chroma subsampling : 4:2:0
Bit depth : 10 bits
Bits/(Pixel*Frame) : 0.062
Stream size : 1.68 GiB (82%)
Writing library : x265 3.0_Au+14-c7e5878bdd31:[Windows][MSVC 1916][64 bit] 10bit
Default : Yes
Forced : No
Audio #1
ID : 2
Format : MPEG Audio
Format version : Version 1
Format profile : Layer 3
Mode : Joint stereo
Codec ID : A_MPEG/L3
Codec ID/Hint : MP3
Duration : 1 h 44 min
Bit rate mode : Constant
Bit rate : 128 kb/s
Channel(s) : 2 channels
Sampling rate : 48.0 kHz
Frame rate : 41.667 FPS (1152 SPF)
Compression mode : Lossy
Stream size : 95.3 MiB (5%)
Title : O'zbek Tili
Language : Uzbek
Default : Yes
Forced : No
Audio #2
ID : 3
Format : AC-3
Format/Info : Audio Coding 3
Format settings, Endianness : Big
Codec ID : A_AC3
Duration : 1 h 44 min
Bit rate mode : Constant
Bit rate : 384 kb/s
Channel(s) : 6 channels
Channel positions : Front: L C R, Side: L R, LFE
Sampling rate : 48.0 kHz
Frame rate : 31.250 FPS (1536 SPF)
Bit depth : 16 bits
Compression mode : Lossy
Stream size : 286 MiB (14%)
Title : Rus Tili
Language : Russian
Service kind : Complete Main
Default : No
Forced : No
LAVHALAR
.torrent yuklash

Yuqori tezlikda va bepul ko‘chirish!

Qanday yuklab olinadi? · Torrent nima o‘zi? · Reyting va cheklovlar

Profil ShX
Xabarlarni ko‘rsatish:    

Hozirgi vaqt: 17-Iyun 02:38

Vaqtlar farqi: UTC + 5



Siz mavzu yaratishingiz mumkin emas
Siz xabarlarga javob qaytarishingiz mumkin emas
Siz o‘z xabarlaringizni tahrirlashingiz mumkin emas
Siz o‘z xabarlaringizni o‘chirishingiz mumkin emas
Siz so‘rovlarda ovoz berishingiz mumkin emas
Siz xabalarga fayllarni biriktirishingiz mumkin emas
Siz fayllarni ko‘chirishingiz mumkin emas