˂
˃
Tarqatmalar statistikasi
Ko‘chirmoqdaman: [ 5 ]
Ko‘chirib bo‘ldim: [ 13 ]
 
     
 
 

KILLER_89-10 ®

Jins:
Yigit
Staj:
1 yil 3 oy
Xabarlar:
34
Taqiq:

"Tinchlik Ortida"
Chiqqan yili: 2019
Davlat: O'zbeksiton
Janr: harbiy
Davomiyligi: 01:22:49
Tarjima: Talab etilmaydi-Rejissor: Akbar Bekturdiev----Bosh rollarda: Muhammadamin Nasriddinov, Shohruh Hamdamov Karim Mirhodiev, Shaxzoda Matchonova, Isoq To'raev, Behzod Hamroyev, Saydulla Maldahanov Lola Eltoeva, Shohruh Asadullayev Rayhon Asadov va boshqalar.-Film haqida: Ushbu filmda bolalikdan Zafar asosiy xarakterini harbiy uchuvchi bo'lish orzu qiladi. Ammo hayot yo'lida u o'z oilasi va qiz do'sti bilan bog'liq bo'lgan qiyinchiliklarni engish kerak. Va nihoyat, u o'z bilimiga, jismoniy kuchiga erishdi. Lekin mamlakatning janubiy tog'larini bosib olgan terrorchilar to'satdan chegaralarni buzmoqda. Ammo bizning Jasur va jasur harbiylarimiz dushmanga qarshi kurashmoqda-Sifat: WEBRip
Video format: MP4
Video: MPEG4 Video (H264) 1264x741 25fps 1864kbps
Audio: AAC 44100Hz stereo 127kbps--

MedioInfo

General
General
Complete name : D:\FILM\KINOLAR\Tinchlik ortida (o'zbek film) ¦ Тинчлик ортида (узбекфильм) 2019.mp4
Format : MPEG-4
Format profile : Base Media
Codec ID : isom
File size : 1.16 GiB
Duration : 1h 22mn
Overall bit rate : 1 999 Kbps
Writing application : Lavf57.2.100
Video
ID : 1
Format : AVC
Format/Info : Advanced Video Codec
Format profile : High@L4.0
Format settings, CABAC : Yes
Format settings, ReFrames : 3 frames
Codec ID : avc1
Codec ID/Info : Advanced Video Coding
Duration : 1h 22mn
Bit rate : 1 865 Kbps
Width : 1 920 pixels
Height : 1 080 pixels
Display aspect ratio : 16:9
Frame rate mode : Constant
Frame rate : 25.000 fps
Color space : YUV
Chroma subsampling : 4:2:0
Bit depth : 8 bits
Scan type : Progressive
Bits/(Pixel*Frame) : 0.036
Stream size : 1.08 GiB (93%)
Writing library : x264 core 155 r2901 7d0ff22
Color primaries : BT.709
Transfer characteristics : BT.709
Matrix coefficients : BT.709
Audio
ID : 2
Format : AAC
Format/Info : Advanced Audio Codec
Format profile : LC
Codec ID : 40
Duration : 1h 22mn
Bit rate mode : Constant
Bit rate : 128 Kbps
Channel(s) : 2 channels
Channel positions : Front: L R
Sampling rate : 44.1 KHz
Compression mode : Lossy
Stream size : 75.8 MiB (6%)
Language : English
--
.torrent yuklash

Yuqori tezlikda va bepul ko‘chirish!

Qanday yuklab olinadi? · Torrent nima o‘zi? · Reyting va cheklovlar

Profil ShX
Xabarlarni ko‘rsatish:    

Hozirgi vaqt: 27-Iyun 09:33

Vaqtlar farqi: UTC + 5



Siz mavzu yaratishingiz mumkin emas
Siz xabarlarga javob qaytarishingiz mumkin emas
Siz o‘z xabarlaringizni tahrirlashingiz mumkin emas
Siz o‘z xabarlaringizni o‘chirishingiz mumkin emas
Siz so‘rovlarda ovoz berishingiz mumkin emas
Siz xabalarga fayllarni biriktirishingiz mumkin emas
Siz fayllarni ko‘chirishingiz mumkin emas