˂
˃
Tarqatmalar statistikasi
Ko‘chiraman: [ 2 ]
Ko‘chirmoqdaman: [ 2 ]
Ko‘chirib bo‘ldim: [ 16 ]
 
     
 
 

AxeL ®

Jins:
Yigit
Staj:
1 yil 3 oy
Xabarlar:
745

Qayerdan: Gronland, Norway

Taqiq:

Asteriks va sexrli damlama / Астерикс и тайное зелье
Astérix: Le secret de la potion magique
- Chiqqan yili: 2018
Davlat: Fransiya
Janr: multfilm, fantaziya
Davomiyligi: 01:24:55
Tarjima: Professional [Ko'p ovozli] O'zbek tilida-Rejissyor: Aleksandr Aste, Lui Klishi-Rollarda: Kristian Klavye, Giyom Bria, Aleks Luts, Aleksandr Astye, Eli Semun, Daniel Mesgish, Bernar Alan, Fransua Morel, Lionel Astye,...-Tavsif: Qadim zamonlardan beri qudratli Gauls buyuk oqsoqol tomonidan tayyorlangan maxfiy ichimlikdagi kuchni oshirdi. Lekin kutilmaganda qaerdan kutilmagan natija keldi, hurmatli druid daraxtdan tushib, ikkala oyog'ini ham sindirdi. Asterix va Obelix endi sirli iksir retseptini tushunishga layoqatli yangi druidni topish uchun xavfli sayohatga chiqishlari kerak.-Kinopoisk.ru: 7.008 (2764)
IMDb: 6.90 (2562)-Sifat: WEB-DLRip
Format: MKV
Video: Xvid 720x304 24fps 1 921 Kbps
Audio: MP3 44100Hz stereo 192kbps O'zbek tilida-

MI

General
Unique ID                      : 151569552055832392267465771759475729461 (0x72073BE09E8B740F660C23742041A435)
Complete name                  : D:\Films\Multfilms\HD Video\Asteriks va Sexrli damlama.2018.WEB-DLRip.mkv
Format                         : Matroska
Format version                 : Version 4 / Version 2
File size                      : 1.25 GiB
Duration                       : 1h 24mn
Overall bit rate               : 2 115 Kbps
Encoded date                   : UTC 2019-05-01 18:19:48
Writing application            : mkvmerge v22.0.0 ('At The End Of The World') 64-bit
Writing library                : libebml v1.3.5 + libmatroska v1.4.8
Video
ID                             : 1
Format                         : MPEG-4 Visual
Format profile                 : Advanced Simple@L5
Format settings, BVOP          : 1
Format settings, QPel          : No
Format settings, GMC           : No warppoints
Format settings, Matrix        : Default (H.263)
Codec ID                       : V_MS/VFW/FOURCC / XVID
Codec ID/Hint                  : XviD
Duration                       : 1h 24mn
Bit rate                       : 1 921 Kbps
Width                          : 720 pixels
Height                         : 304 pixels
Display aspect ratio           : 2.40:1
Frame rate mode                : Constant
Frame rate                     : 24.000 fps
Color space                    : YUV
Chroma subsampling             : 4:2:0
Bit depth                      : 8 bits
Scan type                      : Progressive
Compression mode               : Lossy
Bits/(Pixel*Frame)             : 0.366
Stream size                    : 1.14 GiB (91%)
Writing library                : XviD 67
Default                        : Yes
Forced                         : No
Audio
ID                             : 2
Format                         : MPEG Audio
Format version                 : Version 1
Format profile                 : Layer 3
Mode                           : Joint stereo
Mode extension                 : MS Stereo
Codec ID                       : A_MPEG/L3
Codec ID/Hint                  : MP3
Duration                       : 1h 24mn
Bit rate mode                  : Constant
Bit rate                       : 192 Kbps
Channel(s)                     : 2 channels
Sampling rate                  : 44.1 KHz
Frame rate                     : 38.281 fps (1152 spf)
Compression mode               : Lossy
Stream size                    : 117 MiB (9%)
Title                          : O'zbek tilida (AxeL)
Writing library                : LAME3.97
Language                       : Uzbek
Default                        : Yes
Forced                         : No
.torrent yuklash

Yuqori tezlikda va bepul ko‘chirish!

Qanday yuklab olinadi? · Torrent nima o‘zi? · Reyting va cheklovlar

Profil ShX
Xabarlarni ko‘rsatish:    

Hozirgi vaqt: 17-Iyul 15:30

Vaqtlar farqi: UTC + 5



Siz mavzu yaratishingiz mumkin emas
Siz xabarlarga javob qaytarishingiz mumkin emas
Siz o‘z xabarlaringizni tahrirlashingiz mumkin emas
Siz o‘z xabarlaringizni o‘chirishingiz mumkin emas
Siz so‘rovlarda ovoz berishingiz mumkin emas
Siz xabalarga fayllarni biriktirishingiz mumkin emas
Siz fayllarni ko‘chirishingiz mumkin emas