˂
˃
Tarqatmalar statistikasi
Ko‘chirmoqdaman: [ 3 ]
Ko‘chirib bo‘ldim: [ 48 ]
 
     
 
 

dilshod6663 ®

Jins:
Ko‘rsatilmagan
Staj:
1 yil 7 oy
Xabarlar:
78
Taqiq:

Tasavvur / За гранью реальности Chiqarilgan yil: 2018
Mamlakat: Rossiya
Janr: Sarguzasht, Fantaziya
vaqti: 01:42:16
Tarjima #1: Professional Ko'p ovozli O'zbek tili (Favvora studiyasi)
Tarjima #2: Professional tuliq tarjima rus tili (i-tunes)
Rejisyor: Aleksandr Boguslavskiy
Rollarda:
Milosh Bikovich, Antonio Banderas, Lyubov Aksenova, Evgeniy Stychkin, Yuriy Chursin,
Aristark Venes, Petar Zekavits, Sergey Astaxov, Nikita Duvbanov, Mikhail Mikheev
Tavsif:
Maykl, iste'dodli kontor, paranormal qobiliyati bo'lgan odamlarni bir guruhni casinoni o'g'irlash uchun to'playdi.
Biroq, ishlar rejaga muvofiq emas va belgilar o'lik xavf ostida.
Ularni qutqarish uchun, Maykl haqiqatdan ham - sirli sirli dunyosida, uning do'stlari superko'pchiligidan oqib chiqadigan bo'ladi.
Sifat: WEB-DLRip iTunes
Format: mkv
Video: XviD, 1646 Kbit / s, 720x304
Ovoz 1: MP3, / 2 ch, / 48.0 kHz, / 128 kbs / O'zbek
Ovoz 2: AC3, / 6 ch, / 48.0 kHz, / 384 Kbps, / rus

Media Info ma'lumotlari:

General
Unique ID : 174775070831580394243042888815033542880 (0x837C744961597871AE5D94804B1568E0)
Complete name : G:\kino\Tasavvur 2018\Tasavvur 2018O18.O.WEB-DLRip..mkv
Format : Matroska
Format version : Version 4
File size : 1.54 GiB
Duration : 1 h 42 min
Overall bit rate : 2 160 kb/s
Encoded date : UTC 2019-05-04 08:30:44
Writing application : mkvmerge v25.0.0 ('Prog Noir') 64-bit
Writing library : libebml v1.3.6 + libmatroska v1.4.9
Video
ID : 1
Format : MPEG-4 Visual
Format profile : Advanced Simple@L5
Format settings : BVOP2
Format settings, BVOP : 2
Format settings, QPel : No
Format settings, GMC : No warppoints
Format settings, Matrix : Default (MPEG)
Codec ID : V_MS/VFW/FOURCC / XVID
Codec ID/Hint : XviD
Duration : 1 h 42 min
Bit rate : 1 646 kb/s
Width : 720 pixels
Height : 304 pixels
Display aspect ratio : 2.35:1
Frame rate mode : Constant
Frame rate : 25.000 FPS
Color space : YUV
Chroma subsampling : 4:2:0
Bit depth : 8 bits
Scan type : Progressive
Compression mode : Lossy
Bits/(Pixel*Frame) : 0.301
Stream size : 1.18 GiB (76%)
Writing library : XviD 1.2.1 (UTC 2008-12-04)
Default : Yes
Forced : No
Audio #1
ID : 2
Format : AC-3
Format/Info : Audio Coding 3
Commercial name : Dolby Digital
Codec ID : A_AC3
Duration : 1 h 42 min
Bit rate mode : Constant
Bit rate : 384 kb/s
Channel(s) : 6 channels
Channel layout : L R C LFE Ls Rs
Sampling rate : 48.0 kHz
Frame rate : 31.250 FPS (1536 SPF)
Bit depth : 16 bits
Compression mode : Lossy
Stream size : 281 MiB (18%)
Service kind : Complete Main
Default : Yes
Forced : No
Audio #2
ID : 3
Format : MPEG Audio
Format version : Version 1
Format profile : Layer 3
Format settings : Joint stereo / MS Stereo
Codec ID : A_MPEG/L3
Codec ID/Hint : MP3
Duration : 1 h 42 min
Bit rate mode : Constant
Bit rate : 128 kb/s
Channel(s) : 2 channels
Sampling rate : 48.0 kHz
Frame rate : 41.667 FPS (1152 SPF)
Compression mode : Lossy
Stream size : 93.6 MiB (6%)
Title : Uzbek tili Favvora Studiyasi
Language : Uzbek
Default : No
Forced : No
.torrent yuklash

Yuqori tezlikda va bepul ko‘chirish!

Qanday yuklab olinadi? · Torrent nima o‘zi? · Reyting va cheklovlar

Profil ShX

MRLG

Jins:
Yigit
Staj:
1 yil 11 oy
Xabarlar:
609
Taqiq:

dilshod6663, Dublyaj aniq favvoranikimi? yoki Yoshlarniki ? Yaqinda bu filmni Yoshlardan berishgandi. Agar yoshlarniki bo'lsa to'g'rilab qo'ying.

Mavzu yaratish 04-May-2019 12:23 (5 daqiqa o‘tgach)

Iqitibos

Profil ShX

dilshod6663 ®

Jins:
Ko‘rsatilmagan
Staj:
1 yil 7 oy
Xabarlar:
78
Taqiq:

MRLG Tekshirdim favvoraniki ekan

Mavzu yaratish 04-May-2019 12:42 (19 daqiqa o‘tgach)

Iqitibos

Profil ShX

XVII

Jins:
Yigit
Staj:
1 yil 3 oy
Xabarlar:
140

Qayerdan: Surkhandarya

Taqiq:

dilshod6663, ishlashdan charchamang. Rahmat

Mavzu yaratish 05-May-2019 09:03 (20 soat o‘tgach)

Iqitibos

Profil ShX

Qwer555

Jins:
Ko‘rsatilmagan
Staj:
1 oy 25 kun
Xabarlar:
1
Taqiq:

Нимага хамма киноларниям скачаты килиб булмаяпти сабаби нима

Mavzu yaratish 04-Iyun-2019 23:03 (30 kun o‘tgach)

Iqitibos

Profil ShX
Xabarlarni ko‘rsatish:    

Hozirgi vaqt: 17-Iyul 15:58

Vaqtlar farqi: UTC + 5



Siz mavzu yaratishingiz mumkin emas
Siz xabarlarga javob qaytarishingiz mumkin emas
Siz o‘z xabarlaringizni tahrirlashingiz mumkin emas
Siz o‘z xabarlaringizni o‘chirishingiz mumkin emas
Siz so‘rovlarda ovoz berishingiz mumkin emas
Siz xabalarga fayllarni biriktirishingiz mumkin emas
Siz fayllarni ko‘chirishingiz mumkin emas