˂
˃
Tarqatmalar statistikasi
Ko‘chiraman: [ 4 ]
Ko‘chirmoqdaman: [ 6 ]
Ko‘chirib bo‘ldim: [ 6 ]
 
     
 
 

AxeL ®

Jins:
Yigit
Staj:
1 yil 2 oy
Xabarlar:
743

Qayerdan: Gronland, Norway

Taqiq:

Nayrangbozning sarguzashtlari / Невероятные приключения Факира / The Extraordinary Journey of the Fakir - Chiqqan yili: 2018
Davlat: Fransiya, AQSh, Belgiya, Singapur, Hindiston
Janr: kulguli, sarguzasht
Davomiyligi: 01:35:55
Tarjima: Professional (Ko'p ovozli kadr ortidan) MY5
Tarjima 2: Professional (dublyaj qilingan) (Litsenziya BD RUS)-Rejissyor: Ken Skott-Rollarda: Dhanush (Ajatashatru Oghash Rathod), Berenis Bejo (Nelly Marnay), Erin Moriarti (Marie), Barkxad Abdi (Wiraj), Jerar Jyuno (Gustave), Ben Miller (Officer Smith), Abel Jafri (Captain Fik), Sara-Jin Labross (Rose), Kay Greydanus (Pieter), Amruta Sent (Siringh), Sima Bisvas,...-Tavsif: Agar sevgi eshikni taqillatmasa, uni dunyoning boshqa tomonida izlash vaqti keldi. Topilganida - yo'qotmang. Va agar yo'qolsa - har qanday narxda qaytaring. Shkafda, qayiqda, balonda yoki hatto chamadonda sayohat qilish kerak. Mumbay-Parij-London-Rim - agar hislar chegara bo'lmasa, ular biznes-klassga ehtiyoj sezmaydi.--Sifat: WEB-DL 1080p
Video format: MKV
Video: MPEG4 Video (H264) 1920x806 24fps 4 556 Kbps
Audio: Dolby AC3 48000Hz 6ch 384kbps Rus tilida
Audio 2: MP3 44100Hz stereo 192kbps O'zbek tilida-

Media Info

General
Unique ID                      : 124347851209319912171665100633934793103 (0x5D8C866779F1FCF30A246640625E098F)
Complete name                  : D:\Films\Tarjima\HD Video\Nayrangbozning.Sarguzashtlari.2018.BDRip.1080p.Rus.Uzb.mkv
Format                         : Matroska
Format version                 : Version 4 / Version 2
File size                      : 3.44 GiB
Duration                       : 1h 35mn
Overall bit rate               : 5 134 Kbps
Encoded date                   : UTC 2019-05-02 15:54:16
Writing application            : mkvmerge v22.0.0 ('At The End Of The World') 64-bit
Writing library                : libebml v1.3.5 + libmatroska v1.4.8
Video
ID                             : 1
Format                         : AVC
Format/Info                    : Advanced Video Codec
Format profile                 : High@L4
Format settings, CABAC         : Yes
Format settings, ReFrames      : 5 frames
Codec ID                       : V_MPEG4/ISO/AVC
Duration                       : 1h 35mn
Bit rate                       : 4 556 Kbps
Width                          : 1 920 pixels
Height                         : 806 pixels
Display aspect ratio           : 2.40:1
Frame rate mode                : Constant
Frame rate                     : 24.000 fps
Color space                    : YUV
Chroma subsampling             : 4:2:0
Bit depth                      : 8 bits
Scan type                      : Progressive
Bits/(Pixel*Frame)             : 0.123
Stream size                    : 3.05 GiB (89%)
Language                       : English
Default                        : Yes
Forced                         : No
Color range                    : Limited
Color primaries                : BT.709
Transfer characteristics       : BT.709
Matrix coefficients            : BT.709
Audio #1
ID                             : 2
Format                         : AC-3
Format/Info                    : Audio Coding 3
Mode extension                 : CM (complete main)
Format settings, Endianness    : Big
Codec ID                       : A_AC3
Duration                       : 1h 35mn
Bit rate mode                  : Constant
Bit rate                       : 384 Kbps
Channel(s)                     : 6 channels
Channel positions              : Front: L C R, Side: L R, LFE
Sampling rate                  : 48.0 KHz
Frame rate                     : 31.250 fps (1536 spf)
Compression mode               : Lossy
Stream size                    : 263 MiB (7%)
Title                          : iTunes
Language                       : Russian
Default                        : Yes
Forced                         : No
Audio #2
ID                             : 3
Format                         : MPEG Audio
Format version                 : Version 1
Format profile                 : Layer 3
Mode                           : Joint stereo
Mode extension                 : MS Stereo
Codec ID                       : A_MPEG/L3
Codec ID/Hint                  : MP3
Duration                       : 1h 35mn
Bit rate mode                  : Constant
Bit rate                       : 192 Kbps
Channel(s)                     : 2 channels
Sampling rate                  : 44.1 KHz
Frame rate                     : 38.281 fps (1152 spf)
Compression mode               : Lossy
Stream size                    : 132 MiB (4%)
Title                          : O'zbek tilida (AxeL)
Writing library                : LAME3.97
Language                       : Uzbek
Default                        : No
Forced                         : No

.torrent yuklash

Yuqori tezlikda va bepul ko‘chirish!

Qanday yuklab olinadi? · Torrent nima o‘zi? · Reyting va cheklovlar

Profil ShX

Mekhriddin

Jins:
Ko‘rsatilmagan
Staj:
4 oy
Xabarlar:
7
Taqiq:

Nayrangbozning sarguzashtlari / Невероятные приключения Факира / The Extraordinary Journey of the Fakir (Ken Skott) [2018, kulguli, sarguzasht, WEB-DL 1080p] O'zbek tilida

Mavzu yaratish 05-May-2019 21:33 (9 soat o‘tgach)

Iqitibos

Profil ShX

Unofficial

Jins:
Yigit
Staj:
1 yil 1 oy
Xabarlar:
449

Qayerdan: Nukus

Taqiq:

AxeL, tarqatmada tezlik yo'q, iltimos tarqatib yuborsangiz

Mavzu yaratish 17-May-2019 11:07 (11 kun o‘tgach)

Iqitibos

Profil ShX
Xabarlarni ko‘rsatish:    

Hozirgi vaqt: 24-May 14:20

Vaqtlar farqi: UTC + 5



Siz mavzu yaratishingiz mumkin emas
Siz xabarlarga javob qaytarishingiz mumkin emas
Siz o‘z xabarlaringizni tahrirlashingiz mumkin emas
Siz o‘z xabarlaringizni o‘chirishingiz mumkin emas
Siz so‘rovlarda ovoz berishingiz mumkin emas
Siz xabalarga fayllarni biriktirishingiz mumkin emas
Siz fayllarni ko‘chirishingiz mumkin emas