˂
˃
Tarqatmalar statistikasi
Ko‘chirmoqdaman: [ 4 ]
 
     
 
 

N.U.R.I.K.B.E.K ®

Jins:
Yigit
Staj:
1 yil 6 oy
Xabarlar:
468

Qayerdan: Jizzax. Paxtakor

Taqiq:

--Varkraft Ikki Olam Bir Taqdir | Варкрафт Два Мира Одна Судьба | Warcraft--Chiqqan yili: 2016
Davlat: Xitoy, Kanada, Yaponiya, AQSH.
Janr: Hayoliy, Jangari, Sarguzasht.
Davomiyligi: 02:03:07
Tarjima 1: Audio Yo'lak: UZHD O'zbek Tilida
Tarjima 2: Audio Yo'lak: iTunes Rus Tili--Rejissyor: Dunkan Jons.-Rollarda: Travis Fimmel, Pol Patton, Ben Foster, Dominik Cooper, Toby Kebbell, Ben Schnetzer, Robert Casinski, Clancy Brown, Daniel Wu, Rut Negga.--Tavsif: Asrlar mobaynida sehrli va beqaror devorlar odamlarni har qanday baxtsizlikdan himoya qildi. Ammo ming yillar oldin mag'lubiyatga uchragan va unutilgan qadimiy yovuzlik uyg'ondi. Shohlikning qalbida qorong'u Portal ochildi va misli ko'rilmagan jonzotlarning irqi Azeroth erlarini suv bosdi. Shunday qilib, bu dunyoning taqdirini abadiy o'zgartirish uchun mo'ljallangan voqealar boshlandi.--Videoning sifati: BDRip HEVC 1080p
Video format: MKV--Video: HVC1 1920x792 23.976fps 1 585 kb/s
Audio: MP3 48000Hz stereo 128kbps O'zbek Tili
Audio 2: MP3 48000Hz stereo 128kbps Rus Tili--

Media Info

General
Format : Matroska
Format version : Version 4 / Version 2
File size : 1.59 GiB
Duration : 2 h 3 min
Overall bit rate : 1 843 kb/s
Encoded date : UTC 2019-05-07 10:59:47
Writing application : mkvmerge v15.0.0 ('Duel with the Devil') 64-bit
Writing library : libebml v1.3.5 + libmatroska v1.4.5
Video
ID : 1
Format : HEVC
Format/Info : High Efficiency Video Coding
Format profile : Main@L4@Main
Codec ID : V_MPEGH/ISO/HEVC
Duration : 2 h 3 min
Bit rate : 1 585 kb/s
Width : 1 920 pixels
Height : 792 pixels
Display aspect ratio : 2.40:1
Frame rate mode : Constant
Frame rate : 23.976 (24000/1001) FPS
Color space : YUV
Chroma subsampling : 4:2:0
Bit depth : 8 bits
Bits/(Pixel*Frame) : 0.043
Stream size : 1.36 GiB (86%)
Default : Yes
Forced : No
Audio #1
ID : 2
Format : MPEG Audio
Format version : Version 1
Format profile : Layer 3
Mode : Joint stereo
Mode extension : MS Stereo
Codec ID : A_MPEG/L3
Codec ID/Hint : MP3
Duration : 2 h 3 min
Bit rate mode : Constant
Bit rate : 128 kb/s
Channel(s) : 2 channels
Sampling rate : 48.0 kHz
Frame rate : 41.667 FPS (1152 SPF)
Compression mode : Lossy
Stream size : 113 MiB (7%)
Title : O'zbek Tili
Writing library : LAME3.99.5
Language : Uzbek
Default : Yes
Forced : No
Audio #2
ID : 3
Format : MPEG Audio
Format version : Version 1
Format profile : Layer 3
Mode : Joint stereo
Codec ID : A_MPEG/L3
Codec ID/Hint : MP3
Duration : 2 h 3 min
Bit rate mode : Constant
Bit rate : 128 kb/s
Channel(s) : 2 channels
Sampling rate : 48.0 kHz
Frame rate : 41.667 FPS (1152 SPF)
Compression mode : Lossy
Stream size : 113 MiB (7%)
Title : Rus Tili
Writing library : LAME3.99.5
Language : Russian
Default : No
Forced : No
LAVHALAR
.torrent yuklash

Yuqori tezlikda va bepul ko‘chirish!

Qanday yuklab olinadi? · Torrent nima o‘zi? · Reyting va cheklovlar

Profil ShX
Xabarlarni ko‘rsatish:    

Hozirgi vaqt: 24-May 15:24

Vaqtlar farqi: UTC + 5



Siz mavzu yaratishingiz mumkin emas
Siz xabarlarga javob qaytarishingiz mumkin emas
Siz o‘z xabarlaringizni tahrirlashingiz mumkin emas
Siz o‘z xabarlaringizni o‘chirishingiz mumkin emas
Siz so‘rovlarda ovoz berishingiz mumkin emas
Siz xabalarga fayllarni biriktirishingiz mumkin emas
Siz fayllarni ko‘chirishingiz mumkin emas